Tvoj účet nieje VIP.
Preto sú tvoje funkcie a možnosti značne obmedzené.
Pre aktiváciu VIP klikni sem.

Muz, ktery prolomil Hitleruv kod / The Codebreaker Who Hacked Hitler (2015)(CZ)[TvRip] | SkTorrent.eu

Cz-SkTorrent open Tracker, na volné zdielanie súborov. Pridajte sa k nasej komunite a získajte pristup k tisícom torrentov.

  • vysoká rýchlost
  • úplne zdarma
  • prevazne Slovenska a Ceska scena
  • ste tu s nami uz 5 rokov - Dakujeme
  • Vitaj Guest (Login) Ako stahovat
    torrenty?
    Torrenty:
    v1 textová
    v2 obrázková
    v3 online filmy
    Ako sa stat
    Uploaderom
    Online
    Filmy
    Forum
    Pravidlá
    BitTorrent
    klient
    pruzinky
    Meno: Heslo:
    Zaregistrovat
    Po zaregistrovaní mozte volne stahovat
    Zabudol som heslo

    Torrent's details
    Muz, ktery prolomil Hitleruv kod / The Codebreaker Who Hacked Hitler (2015)(CZ)[TvRip] Názov:Muz, ktery prolomil Hitleruv kod / The Codebreaker Who Hacked Hitler (2015)(CZ)[TvRip] Hodnocení:N/A Stiahnut
    Pozriet Online
    Kategória:Dokument Velikost:532.5 MB BitTorrent klient
    Pridaný: Súbory:
    Skontrolován:2020-06-07 Peerov:3 (Seed: 3, Leech: 0)
    Zaner:Dokumentarny,Historicky Uploader:Uvidis, az ked budes
    VIP
    Kúp nám Pivo 1,10€

    Kúp nám Pivo
    Podporte nas na Facebooku !
    Pridaj do zalozky
    Pridaj do zalozky




    Délka: 46mn 
    Jazyk: cz 2.0 
    Titulky: ne 
    Rok vzniku: 2015 
    Žánr: Dokumentární 
    Odkaz na CSFD: http://www.csfd.cz/film/446882-muz-ktery-prolomil-hitleruv-kod/ 
    Odkaz na IMDB: http://www.imdb.com/title/tt5011050/ 





    Obsah: 
    Náš film je vzpomínkou a holdem vzdaným Gordonu Welchmanovi, britskému luštiteli šifer, člověku, jenž sehrál vysoce záslužnou roli v podkopání komunikace hitlerovského Německa a při vytváření protokolu nakládání s daty, který využívala později ustavená tajná služba. 


    Formát: AVI
    Formát/Info: Audio Video Interleave
    Velikost souboru: 533 MiB
    Duration: 45 min 59 s
    Overall bit rate mode: Variable
    Celkový BitRate: 1 619 kb/s
    Použitý software: MEncoder r33883
    Enkódoval: VirtualDub build 32662/release

    Video
    ID: 0
    Formát: MPEG-4 Visual
    Format profile: Simple@L3
    Format settings, BVOP: Ne
    Format settings, QPel: Ne
    Format settings, GMC: No warppoints
    Format settings, Matrix: Default (H.263)
    Codec ID: XVID
    Codec ID/Hint: XviD
    Duration: 45 min 59 s
    Bit rate: 1 482 kb/s
    Šířka: 720pixely
    Výška: 406pixely
    Poměr stran: 16:9
    Frame rate: 25,000 FPS
    Color space: YUV
    Chroma subsampling: 4:2:0
    Bit depth: 8 bits
    Scan type: Progressive
    Compression mode: Lossy
    Bits/(Pixel*Frame): 0.203
    Stream size: 488 MiB (92%)
    Enkódoval: XviD 63

    Audio
    ID: 1
    Formát: MPEG Audio
    Format version: Version 1
    Format profile: Layer 3
    Format settings: Joint stereo / MS Stereo
    Codec ID: 55
    Codec ID/Hint: MP3
    Duration: 45 min 59 s
    Bit rate mode: Variable
    Bit rate: 124 kb/s
    Kanál(y): 2 kanály
    Sampling rate: 44,1 kHz
    Compression mode: Lossy
    Stream size: 40,8 MiB (8%)
    Alignment: Aligned on interleaves
    Interleave, duration: 26  ms (0,65 video frame)
    Interleave, preload duration: 514  ms













    + Pridaj vlastnu verziu tohto torrentu +


    Upozornenie:
    Ziadny zo zobrazených súborov sa nenachádza na tomto serveri. Server slúzi len k síreniu vlastnorucne vytvorených aplikácií, videí, hudby ai. Autori stránok nenesú ziadnu zodpovednost za zverejnené odkazy, komentáre a obsah súborov. Vsetky komentáre, odkazy, súbory ktoré by svojou povahou mohli byt v rozpore zo zákonmi sem vkladáte na vlastnú zodpovednost. Autori stránok si vyhradzujú právo cenzúry odkazov, komentárov príp. súborov, ktoré by svojou povahou mohli byt v rozpore zo zákonmi a dobrými mravmi. Dodrzujte pravidlá!


    No comments...


    Back

    Na serveru se nenalézají zádne soubory. Za odkazy jsou výhradně zodpovědní uzivatelé a návstěvníci tohoto trackeru. Administrátor není zodpovědný za pridaný obsah ani za skody zpusobené uzivateli. Rozsirovat stránku nebo její obsah bez souhlasu ownera je zakázano. Nesmíte pouzívat tuto webovou stránku pro distribuovaní nebo download zádného materiálu pokud nemáte povolení od príslusného vlastníka práv. Uzivatelé jsou zodpovědní za dodrzování těchto pravidel a podmínek. Owner má právo kdykoliv změnit pravidla tohoto trackeru.

    [ Script trval: 0.025 sec. ] - [ GZIP: enabled ]
    BtiTracker (1.4.8) by Btiteam
    Je zhruba 08:45

    TOPlist