Tvoj účet nieje VIP.
Preto sú tvoje funkcie a možnosti značne obmedzené.
Pre aktiváciu VIP klikni sem.

Muz z Ria / L Homme de Rio (1964)(CZ) = CSFD 77% | SkTorrent.eu

Cz-SkTorrent open Tracker, na volné zdielanie súborov. Pridajte sa k nasej komunite a získajte pristup k tisícom torrentov.

  • vysoká rýchlost
  • úplne zdarma
  • prevazne Slovenska a Ceska scena
  • ste tu s nami uz 5 rokov - Dakujeme
  • Vitaj Guest (Login) Ako stahovat
    torrenty?
    Torrenty:
    v1 textová
    v2 obrázková
    v3 online filmy
    Ako sa stat
    Uploaderom
    Online
    Filmy
    Forum
    Pravidlá
    BitTorrent
    klient
    Meno: Heslo:
    Zaregistrovat
    Po zaregistrovaní mozte volne stahovat
    Zabudol som heslo

    Torrent's details
    Muz z Ria / L Homme de Rio (1964)(CZ) = CSFD 77% Názov:Muz z Ria / L Homme de Rio (1964)(CZ) = CSFD 77% Hodnocení:N/A Stiahnut
    Pozriet Online
    Kategória:Filmy CZ/SK dabing Velikost:1.3 GB BitTorrent klient
    Pridaný: Súbory:
    Skontrolován:2014-01-07 Peerov:0 (Seed: 0, Leech: 0)
    Zaner:Akcni,Dobrodruzny,Komedie,Romanticky Uploader:Uvidis, az ked budes
    VIP
    Kúp nám Pivo 1,10€

    Kúp nám Pivo
    Podporte nas na Facebooku !
    Pridaj do zalozky
    Pridaj do zalozky




    Jazyk: český
    Titulky: Ne.
    Rok vydání: 1964
    Délka: 112 minut
    Žánr: Akční / Dobrodružný / Komedie / Romantický
    Odkaz: http://www.csfd.cz/film/32424-muz-z-ria/

    Obrázek:

    MediaInfo:
    General
    Complete name                            : Z:\4. Francouzske filmy cz dabing 104 GB\Muz z Ria (1964).avi
    Format                                   : AVI
    Format/Info                              : Audio Video Interleave
    File size                                : 1.32 GiB
    Duration                                 : 1h 48mn
    Overall bit rate                         : 1 738 Kbps

    Video
    ID                                       : 0
    Format                                   : MPEG-4 Visual
    Format profile                           : Advanced Simple@L5
    Format settings, BVOP                    : 2
    Format settings, QPel                    : No
    Format settings, GMC                     : No warppoints
    Format settings, Matrix                  : Default (H.263)
    Codec ID                                 : XVID
    Codec ID/Hint                            : XviD
    Duration                                 : 1h 48mn
    Bit rate                                 : 1 537 Kbps
    Width                                    : 720 pixels
    Height                                   : 464 pixels
    Display aspect ratio                     : 16:10
    Frame rate                               : 25.000 fps
    Color space                              : YUV
    Chroma subsampling                       : 4:2:0
    Bit depth                                : 8 bits
    Scan type                                : Progressive
    Compression mode                         : Lossy
    Bits/(Pixel*Frame)                       : 0.184
    Stream size                              : 1.17 GiB (88%)
    Writing library                          : XviD 1.2.1 (UTC 2008-12-04)

    Audio
    ID                                       : 1
    Format                                   : AC-3
    Format/Info                              : Audio Coding 3
    Mode extension                           : CM (complete main)
    Format settings, Endianness              : Big
    Codec ID                                 : 2000
    Duration                                 : 1h 48mn
    Source duration                          : 1h 48mn
    Bit rate mode                            : Constant
    Bit rate                                 : 192 Kbps
    Channel(s)                               : 2 channels
    Channel positions                        : Front: L R
    Sampling rate                            : 48.0 KHz
    Bit depth                                : 16 bits
    Compression mode                         : Lossy
    Stream size                              : 149 MiB (11%)
    Alignment                                : Aligned on interleaves
    Interleave, duration                     : 40 ms (1.00 video frame)

    Popis:
    Francouzský dobrodružný příběh Muž z Ria je jistě jedním z filmových předků Indiana Jonese. Vypráví totiž o neuvěřitelných dobrodružstvích mladého Francouze, pronásledujícího přes celý svět únosce své snoubenky, to vše kvůli bájnému pokladu zmizelé civilizace Malteků. Vojín základní služby Adrien Dufourquet přijíždí na týdenní dovolenou do Paříže za svou snoubenkou Agnes Villermosovou. Ta je však unesena tajemnými muži, kteří pátrají po třech soškách, jediných památkách na ztracenou civilizaci a současně klíčům k bájnému pokladu. Adrien je muž činu a proto se okamžitě vydá únosce pronásledovat. Jeho cesta vede z Paříže do Rio de Janeira, dále do hlavního města Brasilia, do hlubin brazilských pralesů a nakonec zpět do Paříže. To vše v příběhu, kde jedna údálost střídá druhou, scenerie se mění zázračnou rychlostí a hrdina se neustále ocitá v nebezpečí života, z něhož se mu daří uniknout vždy na poslední chvíli, a to jen proto, aby se vzápětí ocitl v dalším ohrožení.








    milanuska,

    + Pridaj vlastnu verziu tohto torrentu +


    Upozornenie:
    Ziadny zo zobrazených súborov sa nenachádza na tomto serveri. Server slúzi len k síreniu vlastnorucne vytvorených aplikácií, videí, hudby ai. Autori stránok nenesú ziadnu zodpovednost za zverejnené odkazy, komentáre a obsah súborov. Vsetky komentáre, odkazy, súbory ktoré by svojou povahou mohli byt v rozpore zo zákonmi sem vkladáte na vlastnú zodpovednost. Autori stránok si vyhradzujú právo cenzúry odkazov, komentárov príp. súborov, ktoré by svojou povahou mohli byt v rozpore zo zákonmi a dobrými mravmi. Dodrzujte pravidlá!


    No comments...


    Back

    Na serveru se nenalézají zádne soubory. Za odkazy jsou výhradně zodpovědní uzivatelé a návstěvníci tohoto trackeru. Administrátor není zodpovědný za pridaný obsah ani za skody zpusobené uzivateli. Rozsirovat stránku nebo její obsah bez souhlasu ownera je zakázano. Nesmíte pouzívat tuto webovou stránku pro distribuovaní nebo download zádného materiálu pokud nemáte povolení od príslusného vlastníka práv. Uzivatelé jsou zodpovědní za dodrzování těchto pravidel a podmínek. Owner má právo kdykoliv změnit pravidla tohoto trackeru.

    [ Script trval: 0.022 sec. ] - [ GZIP: enabled ]
    Je zhruba 12:53
    sql

    TOPlist