Tvoj účet nieje VIP.
Preto sú tvoje funkcie a možnosti značne obmedzené.
Pre aktiváciu VIP klikni sem.

Muzikal ze stredni: Serial / High School Musical: The Musical: The Series (S03E01-Tabornici)(CZ/SK/EN)(2022)(1080p-HEVC) = CSFD 64% | SkTorrent.eu

Cz-SkTorrent open Tracker, na volné zdielanie súborov. Pridajte sa k nasej komunite a získajte pristup k tisícom torrentov.

  • vysoká rýchlost
  • úplne zdarma
  • prevazne Slovenska a Ceska scena
  • ste tu s nami uz 5 rokov - Dakujeme
  • Vitaj Guest (Login) Ako stahovat
    torrenty?
    Torrenty:
    v1 textová
    v2 obrázková
    v3 online filmy
    Ako sa stat
    Uploaderom
    Online
    Filmy
    Forum
    Pravidlá
    BitTorrent
    klient
    Meno: Heslo:
    Zaregistrovat
    Po zaregistrovaní mozte volne stahovat
    Zabudol som heslo

    Torrent's details
    Muzikal ze stredni: Serial / High School Musical: The Musical: The Series (S03E01-Tabornici)(CZ/SK/EN)(2022)(1080p-HEVC) = CSFD 64% Názov:Muzikal ze stredni: Serial / High School Musical: The Musical: The Series (S03E01-Tabornici)(CZ/SK/EN)(2022)(1080p-HEVC) = CSFD 64% Hodnocení:N/A Stiahnut
    Pozriet Online
    Kategória:Seriál Velikost:1.1 GB BitTorrent klient
    Pridaný: Súbory:
    Skontrolován:2022-07-29 Peerov:0 (Seed: 0, Leech: 0)
    Zaner:Drama,Komedie,Muzikal Uploader:Uvidis, az ked budes
    VIP
    Kúp nám Pivo 1,10€

    Kúp nám Pivo
    Podporte nas na Facebooku !
    Pridaj do zalozky
    Pridaj do zalozky











    Drama / Komedie / Muzikál
    USA, 2022, 35 min


    Video: 1080p MKV HEVC
    Audio : CZ/SK/EN Dabing - AC-3 5.1- 256 kb/s
    Titulky : CZ/SK/EN - CZ/SK forced

    Tvůrci: Tim Federle
    Režie: Kimberly McCullough
    Scénář: Zachary Dodes
    Hudba: Gabriel Mann
    Hrají: Joshua Bassett, Olivia Rodrigo, Matt Cornett, Larry Saperstein, Julia Lester, Kate Reinders, Sofia Wylie, Frankie A. Rodriguez, Dara Reneé, Olivia Rose Keegan, Meg Donnelly, Jason Earles, Corbin Bleu
    Scénografie: Maggie Ruder
    Kostýmy: María Aguilar

    Náhled








    Jaký je čas? Teď léto je! Tygři míří na západ. (Disney+)



    Formát                                   : Matroska
    Format version                           : Version 4
    Velikost souboru                         : 1,14 GiB
    Duration                                 : 31 min 37 s
    Celkový BitRate                          : 5 163 kb/s
    Název filmu                              : Táborníci
    Description                              : Jaký je čas? Teď léto je! Tygři míří na západ do tábora Shallow Lake, kde budou jako první tábor vůbec inscenovat Ledového království! Dynamiku narušuje několik zbrusu nových táborníků, ale i tak Tygry čeká nezapomenutelné léto plné skvělých i horších okamžiků a svobody.
    Encoded date                             : UTC 2022-07-28 05:44:35
    Použitý software                         : HandBrake 1.5.1 2022011000
    Enkódoval                                : Lavf58.76.100
    ErrorDetectionType                       : Per level 1
    ARTIST                                   : Olivia Rodrigo,Joshua Bassett,Matt Cornett,Sofia Wylie,Larry Saperstein

    Video
    ID                                       : 1
    Formát                                   : HEVC
    Formát/Info                              : High Efficiency Video Coding
    Format profile                           : Main@L4@Main
    Codec ID                                 : V_MPEGH/ISO/HEVC
    Duration                                 : 31 min 37 s
    Bit rate                                 : 4 292 kb/s
    Šířka                                    : 1 920pixely
    Výška                                    : 1 080pixely
    Poměr stran                              : 16:9
    Frame rate mode                          : Constant
    Frame rate                               : 23,976 (24000/1001) FPS
    Color space                              : YUV
    Chroma subsampling                       : 4:2:0
    Bit depth                                : 8 bits
    Bits/(Pixel*Frame)                       : 0.086
    Stream size                              : 971 MiB (83%)
    Default                                  : Ano
    Forced                                   : Ne
    Color range                              : Limited
    Color primaries                          : BT.709
    Transfer characteristics                 : BT.709
    Matrix coefficients                      : BT.709

    Audio #1
    ID                                       : 2
    Formát                                   : E-AC-3
    Formát/Info                              : Enhanced AC-3
    Commercial name                          : Dolby Digital Plus
    Codec ID                                 : A_EAC3
    Duration                                 : 31 min 37 s
    Bit rate mode                            : Constant
    Bit rate                                 : 256 kb/s
    Kanál(y)                                 : 6 kanály
    Channel layout                           : L R C LFE Ls Rs
    Sampling rate                            : 48,0 kHz
    Frame rate                               : 31,250 FPS (1536 SPF)
    Compression mode                         : Lossy
    Stream size                              : 57,9 MiB (5%)
    Titul                                    : Čeština
    Jazyk                                    : Czech
    Service kind                             : Complete Main
    Default                                  : Ano
    Forced                                   : Ne

    Audio #2
    ID                                       : 3
    Formát                                   : E-AC-3
    Formát/Info                              : Enhanced AC-3
    Commercial name                          : Dolby Digital Plus
    Codec ID                                 : A_EAC3
    Duration                                 : 31 min 37 s
    Bit rate mode                            : Constant
    Bit rate                                 : 256 kb/s
    Kanál(y)                                 : 6 kanály
    Channel layout                           : L R C LFE Ls Rs
    Sampling rate                            : 48,0 kHz
    Frame rate                               : 31,250 FPS (1536 SPF)
    Compression mode                         : Lossy
    Stream size                              : 57,9 MiB (5%)
    Titul                                    : Slovenčina
    Jazyk                                    : Slovak
    Service kind                             : Complete Main
    Default                                  : Ne
    Forced                                   : Ne

    Audio #3
    ID                                       : 4
    Formát                                   : E-AC-3
    Formát/Info                              : Enhanced AC-3
    Commercial name                          : Dolby Digital Plus
    Codec ID                                 : A_EAC3
    Duration                                 : 31 min 37 s
    Bit rate mode                            : Constant
    Bit rate                                 : 256 kb/s
    Kanál(y)                                 : 6 kanály
    Channel layout                           : L R C LFE Ls Rs
    Sampling rate                            : 48,0 kHz
    Frame rate                               : 31,250 FPS (1536 SPF)
    Compression mode                         : Lossy
    Stream size                              : 57,9 MiB (5%)
    Titul                                    : English
    Jazyk                                    : English
    Service kind                             : Complete Main
    Default                                  : Ne
    Forced                                   : Ne

    Text #1
    ID                                       : 5
    Formát                                   : ASS
    Codec ID                                 : S_TEXT/ASS
    Codec ID/Info                            : Advanced Sub Station Alpha
    Duration                                 : 31 min 33 s
    Compression mode                         : Lossless
    Titul                                    : Čeština
    Jazyk                                    : Czech
    Default                                  : Ne
    Forced                                   : Ne

    Text #2
    ID                                       : 6
    Formát                                   : ASS
    Codec ID                                 : S_TEXT/ASS
    Codec ID/Info                            : Advanced Sub Station Alpha
    Duration                                 : 30 min 6 s
    Compression mode                         : Lossless
    Titul                                    : cs--forced--
    Jazyk                                    : Czech
    Default                                  : Ne
    Forced                                   : Ne

    Text #3
    ID                                       : 7
    Formát                                   : ASS
    Codec ID                                 : S_TEXT/ASS
    Codec ID/Info                            : Advanced Sub Station Alpha
    Duration                                 : 31 min 33 s
    Compression mode                         : Lossless
    Titul                                    : Slovenčina
    Jazyk                                    : Slovak
    Default                                  : Ne
    Forced                                   : Ne

    Text #4
    ID                                       : 8
    Formát                                   : ASS
    Codec ID                                 : S_TEXT/ASS
    Codec ID/Info                            : Advanced Sub Station Alpha
    Duration                                 : 30 min 6 s
    Compression mode                         : Lossless
    Titul                                    : sk--forced--
    Jazyk                                    : Slovak
    Default                                  : Ne
    Forced                                   : Ne

    Text #5
    ID                                       : 9
    Formát                                   : ASS
    Codec ID                                 : S_TEXT/ASS
    Codec ID/Info                            : Advanced Sub Station Alpha
    Duration                                 : 30 min 16 s
    Compression mode                         : Lossless
    Titul                                    : English [CC]
    Jazyk                                    : English
    Default                                  : Ne
    Forced                                   : Ne















    + Pridaj vlastnu verziu tohto torrentu +


    Upozornenie:
    Ziadny zo zobrazených súborov sa nenachádza na tomto serveri. Server slúzi len k síreniu vlastnorucne vytvorených aplikácií, videí, hudby ai. Autori stránok nenesú ziadnu zodpovednost za zverejnené odkazy, komentáre a obsah súborov. Vsetky komentáre, odkazy, súbory ktoré by svojou povahou mohli byt v rozpore zo zákonmi sem vkladáte na vlastnú zodpovednost. Autori stránok si vyhradzujú právo cenzúry odkazov, komentárov príp. súborov, ktoré by svojou povahou mohli byt v rozpore zo zákonmi a dobrými mravmi. Dodrzujte pravidlá!


    No comments...


    Back

    Na serveru se nenalézají zádne soubory. Za odkazy jsou výhradně zodpovědní uzivatelé a návstěvníci tohoto trackeru. Administrátor není zodpovědný za pridaný obsah ani za skody zpusobené uzivateli. Rozsirovat stránku nebo její obsah bez souhlasu ownera je zakázano. Nesmíte pouzívat tuto webovou stránku pro distribuovaní nebo download zádného materiálu pokud nemáte povolení od príslusného vlastníka práv. Uzivatelé jsou zodpovědní za dodrzování těchto pravidel a podmínek. Owner má právo kdykoliv změnit pravidla tohoto trackeru.

    [ Script trval: 0.026 sec. ] - [ GZIP: enabled ]
    Je zhruba 19:19
    sql

    TOPlist