Tvoj účet nieje VIP.
Preto sú tvoje funkcie a možnosti značne obmedzené.
Pre aktiváciu VIP klikni sem.

Mysli jako on / Think Like a Man (2012)(CZ) = CSFD 66% | SkTorrent.eu

Cz-SkTorrent open Tracker, na volné zdielanie súborov. Pridajte sa k nasej komunite a získajte pristup k tisícom torrentov.

  • vysoká rýchlost
  • úplne zdarma
  • prevazne Slovenska a Ceska scena
  • ste tu s nami uz 5 rokov - Dakujeme
  • Vitaj Guest (Login) Ako stahovat
    torrenty?
    Torrenty:
    v1 textová
    v2 obrázková
    v3 online filmy
    Ako sa stat
    Uploaderom
    Online
    Filmy
    Forum
    Pravidlá
    BitTorrent
    klient
    Meno: Heslo:
    Zaregistrovat
    Po zaregistrovaní mozte volne stahovat
    Zabudol som heslo

    Torrent's details
    Mysli jako on / Think Like a Man (2012)(CZ) = CSFD 66% Názov:Mysli jako on / Think Like a Man (2012)(CZ) = CSFD 66% Hodnocení:N/A Stiahnut
    Pozriet Online
    Kategória:Filmy CZ/SK dabing Velikost:1.7 GB BitTorrent klient
    Pridaný: Súbory:
    Skontrolován:2014-02-11 Peerov:0 (Seed: 0, Leech: 0)
    Zaner:Komedie,Romanticky Uploader:Uvidis, az ked budes
    VIP
    Kúp nám Pivo 1,10€

    Kúp nám Pivo
    Podporte nas na Facebooku !
    Pridaj do zalozky
    Pridaj do zalozky






    Jazyk: CZ
    Titulky: Ne
    Kvalita zvuku: MPEG 1 Layer 3 / 2CH / 48.0 kHz / 320 Kbps
    Kvalita videa: MPEG-4 Visual / 1 699 Kbps
    Odkaz na CSFD: http://www.csfd.cz/film/299043-mysli-jako-on
    Rok vydání: 2012
    Délka: 117 min
    Žánr: Komedie / Romantický




    Náhledy:

     


    Obsah:

    Rovnováha sil čtyř párů je značně vychýlena – ženy totiž začaly používat rady z populární knihy Steveho Harveye "Chovej se jako žena, mysli jako muž", aby od svých partnerů dostaly to, co chtějí. Jenže jejich muži na to brzy přijdou a rozhodnou se, že nejlepší obranou je útok. Vymyslí plán, jak využít tuto informaci ve svůj prospěch a válka pohlaví začíná!


    MediaInfoGeneral
    Format: AVI
    Format/Info: Audio Video Interleave
    File size: 1.73 GiB
    Duration: 2h 2mn
    Overall bit rate: 2 028 Kbps

    Video
    ID: 0
    Format: MPEG-4 Visual
    Format profile: Advanced Simple@L5
    Format settings, BVOP: 1
    Format settings, QPel: Yes
    Format settings, GMC: No warppoints
    Format settings, Matrix: Default (H.263)
    Codec ID: XVID
    Codec ID/Hint: XviD
    Duration: 2h 2mn
    Bit rate: 1 699 Kbps
    Width: 720 pixels
    Height: 304 pixels
    Display aspect ratio: 2.40:1
    Frame rate: 23.976 fps
    Color space: YUV
    Chroma subsampling: 4:2:0
    Bit depth: 8 bits
    Scan type: Progressive
    Compression mode: Lossy
    Bits/(Pixel*Frame): 0.324
    Stream size: 1.45 GiB (84%)
    Writing library: XviD 1.2.1 (UTC 2008-12-04)

    Audio
    ID: 1
    Format: MPEG Audio
    Format version: Version 1
    Format profile: Layer 3
    Mode: Joint stereo
    Codec ID: 55
    Codec ID/Hint: MP3
    Duration: 2h 2mn
    Source duration: 2h 2mn
    Bit rate mode: Constant
    Bit rate: 320 Kbps
    Channel(s): 2 channels
    Sampling rate: 48.0 KHz
    Compression mode: Lossy
    Stream size: 279 MiB (16%)
    Alignment: Aligned on interleaves
    Interleave, duration: 42 ms (1.00 video frame)
    Writing library: LAME3.98.2











    marekbalog, milanuska, Erikdesouza,

    + Pridaj vlastnu verziu tohto torrentu +


    Upozornenie:
    Ziadny zo zobrazených súborov sa nenachádza na tomto serveri. Server slúzi len k síreniu vlastnorucne vytvorených aplikácií, videí, hudby ai. Autori stránok nenesú ziadnu zodpovednost za zverejnené odkazy, komentáre a obsah súborov. Vsetky komentáre, odkazy, súbory ktoré by svojou povahou mohli byt v rozpore zo zákonmi sem vkladáte na vlastnú zodpovednost. Autori stránok si vyhradzujú právo cenzúry odkazov, komentárov príp. súborov, ktoré by svojou povahou mohli byt v rozpore zo zákonmi a dobrými mravmi. Dodrzujte pravidlá!


    No comments...


    Back

    Na serveru se nenalézají zádne soubory. Za odkazy jsou výhradně zodpovědní uzivatelé a návstěvníci tohoto trackeru. Administrátor není zodpovědný za pridaný obsah ani za skody zpusobené uzivateli. Rozsirovat stránku nebo její obsah bez souhlasu ownera je zakázano. Nesmíte pouzívat tuto webovou stránku pro distribuovaní nebo download zádného materiálu pokud nemáte povolení od príslusného vlastníka práv. Uzivatelé jsou zodpovědní za dodrzování těchto pravidel a podmínek. Owner má právo kdykoliv změnit pravidla tohoto trackeru.

    [ Script trval: 0.023 sec. ] - [ GZIP: enabled ]
    Je zhruba 11:31
    sql

    TOPlist