Tvoj účet nieje VIP.
Preto sú tvoje funkcie a možnosti značne obmedzené.
Pre aktiváciu VIP klikni sem.

Námořní vyšetřovací služba: New Orleans / NCIS New Orleans S02 (CZ)[720p] = CSFD 48% | SkTorrent.eu

Cz-SkTorrent open Tracker, na volné zdieľanie súborov. Pridajte sa k našej komunite a získajte prístup k tisícom torrentov.

  • vysoká rýchlosť
  • úplne zdarma
  • prevažne Slovenská a Česká scéna
  • ste tu s nami už 10 rokov - Ďakujeme
  • Vitaj Guest (Login) Ako stahovat
    torrenty?
    Torrenty:
    v1 textová
    v2 obrázková
    Ako sa stat
    Uploaderom
    Online
    Filmy
    Forum
    Pravidlá
    SkTSocial
    BitTorrent
    klient
    Meno: Heslo:
    Zaregistrovat
    Po zaregistrovaní mozte volne stahovat
    Zabudol som heslo

    Námořní vyšetřovací služba: New Orleans / NCIS New Orleans S02 (CZ)[720p] = CSFD 48% Názov:Námořní vyšetřovací služba: New Orleans / NCIS New Orleans S02 (CZ)[720p] = CSFD 48% Hodnocení:N/A Stiahnut
    Pozriet Online
    Kategória:Seriál - Velikost:17.0 GB BitTorrent klient
    Pridaný: Súbory:
    Skontrolován:2023-11-18 Peerov:3 (Seed: 3, Leech: 0)
    Zaner:Drama,Krimi Uploader:Uvidis, az ked budes
    VIP
    Kúp nám Pivo 1,10€

    Kúp nám Pivo

    Pridaj do zalozky
    Pridaj do zalozky





    Jazyk: CZ
    Titulky: Ne
    CSFD: https://www.csfd.cz/film/388960-namorni-vysetrovaci-sluzba-new-orleans/566383-serie-2/prehled/
    EDNA: https://www.edna.cz/ncis-new-orleans/epizody/?season=2
    Krimi / Drama
    USA, (2015–2016), 16 h 50 min (Minutáž: 40–44 min)


    Obsah:
    New Orleans je městem plným hudby, zábavy a dekadence – a rozhodně není bez zločinců! Kriminální drama NCIS: New Orleans sleduje případy lokální pobočky Námořní vyšetřovací služby, která se zabývá případy týkajícími se vojenského personálu. V čele týmu stojí zvláštní agent Dwayne Pride (Scott Bakula), neworleanský rodák, jehož pohání silná touha po spravedlnosti. Mezi jeho spolupracovníky patří nesmlouvavý a pracovitý agent Christopher LaSalle (Lucas Black) a agentka Meredith Brody (Zoe McLellan), charismatická a tvrdá vyšetřovatelka, která v New Orleans po přeložení hledá nový začátek. Pomáhat jim bude také výstřední, ale inteligentní soudní lékařka Loretta Wade (CCH Pounder).


       
       

    [roll=Hlavné parametre]
    Celý názov a cesta                       : G:\Seriál\NCIS New Orleans\NCIS New Orleans S02\NCIS.New.Orleans.S02E01.Tak vždy tyranům.avi
    Formát                                   : AVI
    Formát/Info                              : Audio Video Interleave
    Nastavenia formátu                       : BitmapInfoHeader / WaveFormatEx
    Veľkosť súboru                           : 951 MiB
    Trvanie                                  : 41 min 7 sek.
    Celkový dátový tok                       : 3 232 kb/s
    Frekvencia snímok                        : 25,000 snímok/sek.
    Použitý software                         : Lavf54.63.104

    Video
    ID                                       : 0
    Formát                                   : AVC
    Formát/Info                              : Advanced Video Codec
    Profil formátu                           : Main@L3.1
    Nastavenia formátu                       : CABAC / 1 Ref Frames
    Format settings, CABAC                   : Áno
    Format settings, Reference frames        : 1snímka
    Označenie kodeku                         : H264
    Trvanie                                  : 41 min 7 sek.
    Dátový tok                               : 2 997 kb/s
    Šírka                                    : 1 280 pixelov
    Výška                                    : 720 pixelov
    Pomer strán                              : 16:9
    Režim frekvencie snímok                  : Variabilný
    Frekvencia snímok                        : 25,000 snímok/sek.
    Color space                              : YUV
    Chroma subsampling                       : 4:2:0
    Bit depth                                : 8 bitov
    Scan type                                : Progresívne
    Bitov/(Bod*Snímka)                       : 0.130
    Stream size                              : 872 MiB (92%)
    Zakódoval                                : x264 core 129
    Nastavenie kodéru                        : cabac=1 / ref=1 / deblock=1:0:0 / analyse=0x1:0x131 / me=dia / subme=2 / psy=1 / psy_rd=1.00:0.00 / mixed_ref=0 / me_range=16 / chroma_me=1 / trellis=0 / 8x8dct=0 / cqm=0 / deadzone=21,11 / fast_pskip=1 / chroma_qp_offset=0 / threads=8 / lookahead_threads=1 / sliced_threads=0 / nr=0 / decimate=1 / interlaced=0 / bluray_compat=0 / constrained_intra=0 / bframes=0 / weightp=2 / keyint=250 / keyint_min=25 / scenecut=40 / intra_refresh=0 / rc_lookahead=40 / rc=abr / mbtree=1 / bitrate=2997 / ratetol=1.0 / qcomp=0.60 / qpmin=10 / qpmax=51 / qpstep=4 / ip_ratio=1.41 / aq=1:1.00

    Audio
    ID                                       : 1
    Formát                                   : MPEG Audio
    Format version                           : Version 1
    Profil formátu                           : Layer 3
    Nastavenia formátu                       : Joint stereo
    Označenie kodeku                         : 55
    Označenie kodeku/Hint                    : MP3
    Trvanie                                  : 41 min 7 sek.
    Režim dátového toku                      : Konštantný dátový tok
    Dátový tok                               : 256 kb/s
    Kanál(y)                                 : 2 kanály
    Sampling rate                            : 48,0 kHz
    Compression mode                         : Lossy
    Stream size                              : 75,3 MiB (8%)
    Alignment                                : Aligned on interleaves
    Interleave, duration                     : 24  ms (0,60 video frame)
    Zakódoval                                : LAME3.99.5











    doboska, Laco7777, tibie, XXLSteve, Trip77,

    + Pridaj vlastnu verziu tohto torrentu +


    Upozornenie:
    Ziadny zo zobrazených súborov sa nenachádza na tomto serveri. Server slúzi len k síreniu vlastnorucne vytvorených aplikácií, videí, hudby ai. Autori stránok nenesú ziadnu zodpovednost za zverejnené odkazy, komentáre a obsah súborov. Vsetky komentáre, odkazy, súbory ktoré by svojou povahou mohli byt v rozpore zo zákonmi sem vkladáte na vlastnú zodpovednost. Autori stránok si vyhradzujú právo cenzúry odkazov, komentárov príp. súborov, ktoré by svojou povahou mohli byt v rozpore zo zákonmi a dobrými mravmi. Dodrzujte pravidlá!





    0
    XXLSteve
    Ratio 1.12

    Member+

    25/11/2023 10.26.50
    Díky za tento seriál.


    Back

    Na serveru se nenalézají zádne soubory. Za odkazy jsou výhradně zodpovědní uzivatelé a návstěvníci tohoto trackeru. Administrátor není zodpovědný za pridaný obsah ani za skody zpusobené uzivateli. Nesmíte pouzívat tuto webovou stránku pro distribuovaní nebo download zádného materiálu pokud nemáte povolení od príslusného vlastníka práv. Uzivatelé jsou zodpovědní za dodrzování těchto pravidel a podmínek. Owner má právo kdykoliv změnit pravidla tohoto trackeru.

    [ Script trval: 0.216 sec. ] - [ GZIP: enabled ]
    Je zhruba 18:37
    sql

    TOPlist