Tvoj účet nieje VIP.
Preto sú tvoje funkcie a možnosti značne obmedzené.
Pre aktiváciu VIP klikni sem.

Na kolejich ceka vrah (1970)(CZ) = CSFD 74% | SkTorrent.eu

Cz-SkTorrent open Tracker, na volné zdielanie súborov. Pridajte sa k nasej komunite a získajte pristup k tisícom torrentov.

  • vysoká rýchlost
  • úplne zdarma
  • prevazne Slovenska a Ceska scena
  • ste tu s nami uz 5 rokov - Dakujeme
  • Vitaj Guest (Login) Ako stahovat
    torrenty?
    Torrenty:
    v1 textová
    v2 obrázková
    Ako sa stat
    Uploaderom
    Online
    Filmy
    Forum
    Pravidlá
    BitTorrent
    klient
    Meno: Heslo:
    Zaregistrovat
    Po zaregistrovaní mozte volne stahovat
    Zabudol som heslo

    Na kolejich ceka vrah (1970)(CZ)  = CSFD 74% Názov:Na kolejich ceka vrah (1970)(CZ) = CSFD 74% Hodnocení:N/A Stiahnut
    Pozriet Online
    Kategória:Filmy CZ/SK dabing Velikost:605.8 MB BitTorrent klient
    Pridaný: Súbory:
    Skontrolován:2014-02-15 Peerov:0 (Seed: 0, Leech: 0)
    Zaner:Drama,Krimi,Thriller Uploader:Uvidis, az ked budes
    VIP
    Kúp nám Pivo 1,10€

    Kúp nám Pivo
    Pridaj do zalozky
    Pridaj do zalozky




    Jazyk: Cesky
    Titulky: Ne.
    Rok vydani:1970
    Delka: 91 minut
    Zanr: Thriller / Drama / Krimi
    Odkaz: http://www.csfd.cz/film/6292-na-kolejich-ceka-vrah/

    Obrazek

    MediaInfo:
    General
    Complete name                            : Z:\2 Cz Černobile filmy-302 GB\Na kolejich ceka vrah DVD (1970).avi
    Format                                   : AVI
    Format/Info                              : Audio Video Interleave
    File size                                : 606 MiB
    Duration                                 : 1h 31mn
    Overall bit rate                         : 928 Kbps

    Video
    ID                                       : 0
    Format                                   : MPEG-4 Visual
    Format profile                           : Advanced Simple@L5
    Format settings, BVOP                    : 2
    Format settings, QPel                    : No
    Format settings, GMC                     : No warppoints
    Format settings, Matrix                  : Default (H.263)
    Codec ID                                 : XVID
    Codec ID/Hint                            : XviD
    Duration                                 : 1h 31mn
    Bit rate                                 : 787 Kbps
    Width                                    : 640 pixels
    Height                                   : 480 pixels
    Display aspect ratio                     : 4:3
    Frame rate                               : 25.000 fps
    Color space                              : YUV
    Chroma subsampling                       : 4:2:0
    Bit depth                                : 8 bits
    Scan type                                : Progressive
    Compression mode                         : Lossy
    Bits/(Pixel*Frame)                       : 0.102
    Stream size                              : 514 MiB (85%)
    Writing library                          : XviD 1.2.1 (UTC 2008-12-04)

    Audio
    ID                                       : 1
    Format                                   : MPEG Audio
    Format version                           : Version 1
    Format profile                           : Layer 3
    Codec ID                                 : 55
    Codec ID/Hint                            : MP3
    Duration                                 : 54mn 47s
    Source duration                          : 1h 31mn
    Bit rate mode                            : Constant
    Bit rate                                 : 128 Kbps
    Channel(s)                               : 1 channel
    Sampling rate                            : 48.0 KHz
    Compression mode                         : Lossy
    Stream size                              : 83.6 MiB (14%)
    Alignment                                : Aligned on interleaves
    Interleave, duration                     : 24 ms (0.60 video frame)
    Writing library                          : LAME3.97 (beta)

    Major Kalaš vyšetřuje loupež nové série bankovek, které byly ukradeny z poštovního vozu rychlíku. Český kriminální film o velké vlakové loupeži a výbuchu na 201. kilometru. V rychlíku odjíždějícím z Prahy je přepravována velká zásilka bankovek. Velitelem ozbrojeného doprovodu je poručík Lenk, který také jako jediný přežije explozi poštovního vagónu, která má zamaskovat loupež bankovek. Případu se ujímá major Kalaš se svým mladým asistentem Karlíčkem. Několik kilometrů před místem katastrofy kriminalisté objeví mrtvolu mladé dívky Anny Halamové, která se stala náhodným svědkem loupeže a proto musela zemřít. Kriminalisté pomalu postupují vpřed a objasňují události na trati. Přestože se prvotní podezření proti raněnému Lenkovi ukazuje mylné, cesta k pravým pachatelům a muži, který stál v pozadí celé loupeže, je ještě dlouhá...
    Popis:







    lubojarabek, milanuska, PavelChomutov, dieter8, samajama,

    + Pridaj vlastnu verziu tohto torrentu +


    Upozornenie:
    Ziadny zo zobrazených súborov sa nenachádza na tomto serveri. Server slúzi len k síreniu vlastnorucne vytvorených aplikácií, videí, hudby ai. Autori stránok nenesú ziadnu zodpovednost za zverejnené odkazy, komentáre a obsah súborov. Vsetky komentáre, odkazy, súbory ktoré by svojou povahou mohli byt v rozpore zo zákonmi sem vkladáte na vlastnú zodpovednost. Autori stránok si vyhradzujú právo cenzúry odkazov, komentárov príp. súborov, ktoré by svojou povahou mohli byt v rozpore zo zákonmi a dobrými mravmi. Dodrzujte pravidlá!




    Uploader
    15/02/2014 05.18.39
    Černobílý kvalitně převedený do DivX kriminální film se Sovákem a Hanzlíkem.. Kolářovou a spol.


    Back

    Na serveru se nenalézají zádne soubory. Za odkazy jsou výhradně zodpovědní uzivatelé a návstěvníci tohoto trackeru. Administrátor není zodpovědný za pridaný obsah ani za skody zpusobené uzivateli. Nesmíte pouzívat tuto webovou stránku pro distribuovaní nebo download zádného materiálu pokud nemáte povolení od príslusného vlastníka práv. Uzivatelé jsou zodpovědní za dodrzování těchto pravidel a podmínek. Owner má právo kdykoliv změnit pravidla tohoto trackeru.

    [ Script trval: 0.019 sec. ] - [ GZIP: enabled ]
    Je zhruba 16:51
    memcache

    TOPlist