Tvoj účet nieje VIP.
Preto sú tvoje funkcie a možnosti značne obmedzené.
Pre aktiváciu VIP klikni sem.

Naruto (001-220) [Complete Series + Movies] | SkTorrent.eu

Cz-SkTorrent open Tracker, na volné zdieľanie súborov. Pridajte sa k našej komunite a získajte prístup k tisícom torrentov.

  • vysoká rýchlosť
  • úplne zdarma
  • prevažne Slovenská a Česká scéna
  • ste tu s nami už 10 rokov - Ďakujeme
  • Vitaj Guest (Login) Ako stahovat
    torrenty?
    Torrenty:
    v1 textová
    v2 obrázková
    Ako sa stat
    Uploaderom
    Online
    Filmy
    Forum
    Pravidlá
    SkTSocial
    BitTorrent
    klient
    Meno: Heslo:
    Zaregistrovat
    Po zaregistrovaní mozte volne stahovat
    Zabudol som heslo

    Naruto (001-220) [Complete Series + Movies] Názov:Naruto (001-220) [Complete Series + Movies] Hodnocení: Stiahnut
    Pozriet Online
    Kategória:Seriál - Velikost:347.6 GB BitTorrent klient
    Pridaný: Súbory:
    Skontrolován:2024-06-11 Peerov:7 (Seed: 6, Leech: 1)
    Zaner:Akcni,Animovany,Dobrodruzny,Fantasy Uploader:Uvidis, az ked budes
    VIP
    Kúp nám Pivo 1,10€

    Kúp nám Pivo
    Pridaj do zalozky
    Pridaj do zalozky



    [size=347 GB ][/size347 GB ]    


    Animovaný / Akční / Fantasy / Komedie
    ENG, 2006, 95 min
    Režie: Tošijuki Curu
    Předloha: Masaši Kišimoto (komiks)
    Kamera: Acuho Macumoto
    Hrají: Džunko Takeuči, Akio Ócuka, Kazuhiko Inoue, Haruhi Nanao, Rokuró Naja, Masako Kacuki, Hisao Egawa, Čie Nakamura, Jóiči Masukawa, Dai Macumoto, Eriko Kigawa (více)
    (další profese)






    Animovaný / Akční / Fantasy / Komedie
    ENG, 2005, 95 min
    Režie: Hirocugu Kawasaki
    Předloha: Masaši Kišimoto (komiks)
    Scénář: Juka Mijata
    Kamera: Acuho Macumoto
    Hudba: Tošio Masuda
    Hrají: Džunko Takeuči, Hóko Kuwašima, Tomoka Kurokawa, Akira Išida, Jasujuki Kase, Urara Takano, Šótaró Morikubo, Nači Nozawa, Akio Nodžima, Tokujoši Kawašima (více)
    (další profese)









    Animovaný / Akční / Drama / Fantasy
    ENG, 2004, 82 min
    Režie: Tensai Okamura
    Předloha: Masaši Kišimoto (komiks)
    Scénář: Kacujuki Sumisawa
    Kamera: Acuho Macumoto
    Hudba: Tošio Masuda
    Hrají: Džunko Takeuči, Noriaki Sugijama, Hirotaka Suzuoki, Hidehiko Išizuka, Čikao Ócuka, Kan Tanaka, Kazuhiko Inoue, Kacuhisa Hóki, Júko Kaida, Kaneko Holly (více)
    (další profese)








    Animovaný / Akční / Fantasy / Komedie
    Japonsko, ENG (2002–2007), 84 h 20 min (Minutáž: 23 min)
    Režie: Hajato Date, Šindži Sató, Mamoru Enomoto, Kijomu Fukuda, Jukio Okazaki (více)
    Předloha: Masaši Kišimoto (komiks)
    Scénář: Akacuki Jamatoja, Satoru Nišizono, Kacujuki Sumisawa, Mičiko Jokote (více)
    Kamera: Acuho Macumoto
    Hudba: Tošio Masuda
    Hrají: Džunko Takeuči, Noriaki Sugijama, Nana Mizuki, Romi Paku, Tošihiko Seki, Akeno Watanabe, Akihiko Išizumi, Bin Šimada, Daisuke Namikawa, Džun'iči Suwabe (více)
    (další profese)










    General
    Unique ID                                : 177280592039584070842884247616753790149 (0x855F0005080A8DB62835AB97D0C06CC5)
    Complete name                            : (001-220) [Complete Series + Movies]\Season 01 [001-057]\Naruto Episode 001 Enter Naruto Uzumaki!.mkv
    Format                                   : Matroska
    Format version                           : Version 4
    File size                                : 1.47 GiB
    Duration                                 : 23 min 37 s
    Overall bit rate mode                    : Variable
    Overall bit rate                         : 8 929 kb/s
    Encoded date                             : UTC 2022-09-11 22:51:02
    Writing application                      : HandBrake 1.5.1 2022011000
    Writing library                          : Lavf58.76.100
    ErrorDetectionType                       : Per level 1

    Video
    ID                                       : 1
    Format                                   : AVC
    Format/Info                              : Advanced Video Codec
    Format profile                           : High@L4
    Format settings                          : CABAC / 5 Ref Frames
    Format settings, CABAC                   : Yes
    Format settings, Reference frames        : 5 frames
    Codec ID                                 : V_MPEG4/ISO/AVC
    Duration                                 : 23 min 37 s
    Width                                    : 1 432 pixels
    Height                                   : 1 080 pixels
    Display aspect ratio                     : 4:3
    Frame rate mode                          : Constant
    Frame rate                               : 29.970 (30000/1001) FPS
    Color space                              : YUV
    Chroma subsampling                       : 4:2:0
    Bit depth                                : 8 bits
    Scan type                                : Progressive
    Writing library                          : x264 core 164 r3065 ae03d92
    Encoding settings                        : cabac=1 / ref=5 / deblock=1:1:1 / analyse=0x3:0x113 / me=hex / subme=8 / psy=1 / psy_rd=0.40:0.00 / mixed_ref=1 / me_range=16 / chroma_me=1 / trellis=2 / 8x8dct=1 / cqm=0 / deadzone=21,11 / fast_pskip=1 / chroma_qp_offset=-2 / threads=24 / lookahead_threads=4 / sliced_threads=0 / nr=0 / decimate=1 / interlaced=0 / bluray_compat=0 / constrained_intra=0 / bframes=5 / b_pyramid=2 / b_adapt=1 / b_bias=0 / direct=3 / weightb=1 / open_gop=0 / weightp=2 / keyint=300 / keyint_min=30 / scenecut=40 / intra_refresh=0 / rc_lookahead=50 / rc=crf / mbtree=1 / crf=18.0 / qcomp=0.60 / qpmin=0 / qpmax=69 / qpstep=4 / vbv_maxrate=25000 / vbv_bufsize=31250 / crf_max=0.0 / nal_hrd=none / filler=0 / ip_ratio=1.40 / aq=1:0.60
    Default                                  : Yes
    Forced                                   : No
    Color range                              : Limited
    Color primaries                          : BT.709
    Transfer characteristics                 : BT.709
    Matrix coefficients                      : BT.709

    Audio #1
    ID                                       : 2
    Format                                   : DTS
    Format/Info                              : Digital Theater Systems
    Codec ID                                 : A_DTS
    Duration                                 : 23 min 37 s
    Bit rate mode                            : Constant
    Bit rate                                 : 1 509 kb/s
    Channel(s)                               : 2 channels
    Channel layout                           : L R
    Sampling rate                            : 48.0 kHz
    Frame rate                               : 93.750 FPS (512 SPF)
    Bit depth                                : 16 bits
    Compression mode                         : Lossy
    Stream size                              : 255 MiB (17%)
    Title                                    : Stereo
    Language                                 : English
    Default                                  : Yes
    Forced                                   : No

    Audio #2
    ID                                       : 3
    Format                                   : DTS XLL
    Format/Info                              : Digital Theater Systems
    Commercial name                          : DTS-HD Master Audio
    Codec ID                                 : A_DTS
    Duration                                 : 23 min 37 s
    Bit rate mode                            : Variable
    Channel(s)                               : 2 channels
    Channel layout                           : L R
    Sampling rate                            : 48.0 kHz
    Frame rate                               : 93.750 FPS (512 SPF)
    Bit depth                                : 16 bits
    Compression mode                         : Lossless
    Title                                    : Stereo
    Language                                 : English
    Default                                  : No
    Forced                                   : No

    Audio #3
    ID                                       : 4
    Format                                   : DTS
    Format/Info                              : Digital Theater Systems
    Codec ID                                 : A_DTS
    Duration                                 : 23 min 37 s
    Bit rate mode                            : Constant
    Bit rate                                 : 1 509 kb/s
    Channel(s)                               : 2 channels
    Channel layout                           : L R
    Sampling rate                            : 48.0 kHz
    Frame rate                               : 93.750 FPS (512 SPF)
    Bit depth                                : 16 bits
    Compression mode                         : Lossy
    Stream size                              : 255 MiB (17%)
    Title                                    : Stereo
    Language                                 : Japanese
    Default                                  : No
    Forced                                   : No

    Audio #4
    ID                                       : 5
    Format                                   : DTS XLL
    Format/Info                              : Digital Theater Systems
    Commercial name                          : DTS-HD Master Audio
    Codec ID                                 : A_DTS
    Duration                                 : 23 min 37 s
    Bit rate mode                            : Variable
    Channel(s)                               : 2 channels
    Channel layout                           : L R
    Sampling rate                            : 48.0 kHz
    Frame rate                               : 93.750 FPS (512 SPF)
    Bit depth                                : 16 bits
    Compression mode                         : Lossless
    Title                                    : Stereo
    Language                                 : Japanese
    Default                                  : No
    Forced                                   : No

    Text #1
    ID                                       : 6
    Format                                   : PGS
    Codec ID                                 : S_HDMV/PGS
    Codec ID/Info                            : Picture based subtitle format used on BDs/HD-DVDs
    Duration                                 : 23 min 33 s
    Language                                 : English
    Default                                  : No
    Forced                                   : No

    Text #2
    ID                                       : 7
    Format                                   : PGS
    Codec ID                                 : S_HDMV/PGS
    Codec ID/Info                            : Picture based subtitle format used on BDs/HD-DVDs
    Duration                                 : 23 min 32 s
    Language                                 : English
    Default                                  : No
    Forced                                   : No

    Menu
    00:00:00.000                             : :Chapter 1
    00:01:52.212                             : :Chapter 2
    00:10:26.926                             : :Chapter 3
    00:21:36.695                             : :Chapter 4
    00:23:06.619                             : :Chapter 5



    General
    Unique ID                                : 146062520938194589975262831083939607676 (0x6DE29E47C7573B4061A79C924022B47C)
    Complete name                            :  (001-220) [Complete Series + Movies]\Movies\Naruto the Movie Ninja Clash in the Land of Snow (2004) [1080p] (Dual Audio).mkv
    Format                                   : Matroska
    Format version                           : Version 4
    File size                                : 4.21 GiB
    Duration                                 : 1 h 22 min
    Overall bit rate mode                    : Variable
    Overall bit rate                         : 7 287 kb/s
    Encoded date                             : UTC 2022-09-18 23:59:21
    Writing application                      : HandBrake 1.5.1 2022011000
    Writing library                          : Lavf58.76.100
    ErrorDetectionType                       : Per level 1

    Video
    ID                                       : 1
    Format                                   : AVC
    Format/Info                              : Advanced Video Codec
    Format profile                           : High@L4
    Format settings                          : CABAC / 4 Ref Frames
    Format settings, CABAC                   : Yes
    Format settings, Reference frames        : 4 frames
    Codec ID                                 : V_MPEG4/ISO/AVC
    Duration                                 : 1 h 22 min
    Width                                    : 1 920 pixels
    Height                                   : 1 036 pixels
    Display aspect ratio                     : 1.85:1
    Frame rate mode                          : Constant
    Frame rate                               : 23.976 (24000/1001) FPS
    Color space                              : YUV
    Chroma subsampling                       : 4:2:0
    Bit depth                                : 8 bits
    Scan type                                : Progressive
    Writing library                          : x264 core 164 r3065 ae03d92
    Encoding settings                        : cabac=1 / ref=4 / deblock=1:1:1 / analyse=0x3:0x113 / me=hex / subme=8 / psy=1 / psy_rd=0.40:0.00 / mixed_ref=1 / me_range=16 / chroma_me=1 / trellis=2 / 8x8dct=1 / cqm=0 / deadzone=21,11 / fast_pskip=1 / chroma_qp_offset=-2 / threads=24 / lookahead_threads=4 / sliced_threads=0 / nr=0 / decimate=1 / interlaced=0 / bluray_compat=0 / constrained_intra=0 / bframes=5 / b_pyramid=2 / b_adapt=1 / b_bias=0 / direct=3 / weightb=1 / open_gop=0 / weightp=2 / keyint=240 / keyint_min=24 / scenecut=40 / intra_refresh=0 / rc_lookahead=50 / rc=crf / mbtree=1 / crf=18.0 / qcomp=0.60 / qpmin=0 / qpmax=69 / qpstep=4 / vbv_maxrate=25000 / vbv_bufsize=31250 / crf_max=0.0 / nal_hrd=none / filler=0 / ip_ratio=1.40 / aq=1:0.60
    Default                                  : Yes
    Forced                                   : No
    Color range                              : Limited
    Color primaries                          : BT.709
    Transfer characteristics                 : BT.709
    Matrix coefficients                      : BT.709

    Audio #1
    ID                                       : 2
    Format                                   : DTS
    Format/Info                              : Digital Theater Systems
    Codec ID                                 : A_DTS
    Duration                                 : 1 h 22 min
    Bit rate mode                            : Constant
    Bit rate                                 : 1 509 kb/s
    Channel(s)                               : 6 channels
    Channel layout                           : C L R Ls Rs LFE
    Sampling rate                            : 48.0 kHz
    Frame rate                               : 93.750 FPS (512 SPF)
    Bit depth                                : 16 bits
    Compression mode                         : Lossy
    Stream size                              : 892 MiB (21%)
    Title                                    : Surround
    Language                                 : English
    Default                                  : Yes
    Forced                                   : No

    Audio #2
    ID                                       : 3
    Format                                   : DTS XLL
    Format/Info                              : Digital Theater Systems
    Commercial name                          : DTS-HD Master Audio
    Codec ID                                 : A_DTS
    Duration                                 : 1 h 22 min
    Bit rate mode                            : Variable
    Channel(s)                               : 6 channels
    Channel layout                           : C L R Ls Rs LFE
    Sampling rate                            : 48.0 kHz
    Frame rate                               : 93.750 FPS (512 SPF)
    Bit depth                                : 16 bits
    Compression mode                         : Lossless
    Title                                    : Surround
    Language                                 : English
    Default                                  : No
    Forced                                   : No

    Audio #3
    ID                                       : 4
    Format                                   : AC-3
    Format/Info                              : Audio Coding 3
    Commercial name                          : Dolby Digital
    Codec ID                                 : A_AC3
    Duration                                 : 1 h 22 min
    Bit rate mode                            : Constant
    Bit rate                                 : 192 kb/s
    Channel(s)                               : 2 channels
    Channel layout                           : L R
    Sampling rate                            : 48.0 kHz
    Frame rate                               : 31.250 FPS (1536 SPF)
    Compression mode                         : Lossy
    Stream size                              : 114 MiB (3%)
    Title                                    : Stereo
    Language                                 : English
    Service kind                             : Complete Main
    Default                                  : No
    Forced                                   : No

    Audio #4
    ID                                       : 5
    Format                                   : AC-3
    Format/Info                              : Audio Coding 3
    Commercial name                          : Dolby Digital
    Codec ID                                 : A_AC3
    Duration                                 : 1 h 22 min
    Bit rate mode                            : Constant
    Bit rate                                 : 192 kb/s
    Channel(s)                               : 2 channels
    Channel layout                           : L R
    Sampling rate                            : 48.0 kHz
    Frame rate                               : 31.250 FPS (1536 SPF)
    Compression mode                         : Lossy
    Stream size                              : 114 MiB (3%)
    Title                                    : Stereo
    Language                                 : Japanese
    Service kind                             : Complete Main
    Default                                  : No
    Forced                                   : No

    Audio #5
    ID                                       : 6
    Format                                   : AC-3
    Format/Info                              : Audio Coding 3
    Commercial name                          : Dolby Digital
    Codec ID                                 : A_AC3
    Duration                                 : 1 h 22 min
    Bit rate mode                            : Constant
    Bit rate                                 : 192 kb/s
    Channel(s)                               : 2 channels
    Channel layout                           : L R
    Sampling rate                            : 48.0 kHz
    Frame rate                               : 31.250 FPS (1536 SPF)
    Compression mode                         : Lossy
    Stream size                              : 114 MiB (3%)
    Title                                    : Stereo
    Language                                 : Japanese
    Service kind                             : Complete Main
    Default                                  : No
    Forced                                   : No

    Audio #6
    ID                                       : 7
    Format                                   : AC-3
    Format/Info                              : Audio Coding 3
    Commercial name                          : Dolby Digital
    Codec ID                                 : A_AC3
    Duration                                 : 1 h 22 min
    Bit rate mode                            : Constant
    Bit rate                                 : 192 kb/s
    Channel(s)                               : 2 channels
    Channel layout                           : L R
    Sampling rate                            : 48.0 kHz
    Frame rate                               : 31.250 FPS (1536 SPF)
    Compression mode                         : Lossy
    Stream size                              : 114 MiB (3%)
    Title                                    : Stereo
    Language                                 : English
    Service kind                             : Complete Main
    Default                                  : No
    Forced                                   : No

    Text #1
    ID                                       : 8
    Format                                   : PGS
    Codec ID                                 : S_HDMV/PGS
    Codec ID/Info                            : Picture based subtitle format used on BDs/HD-DVDs
    Duration                                 : 1 h 22 min
    Language                                 : English
    Default                                  : No
    Forced                                   : No

    Text #2
    ID                                       : 9
    Format                                   : PGS
    Codec ID                                 : S_HDMV/PGS
    Codec ID/Info                            : Picture based subtitle format used on BDs/HD-DVDs
    Duration                                 : 1 h 22 min
    Language                                 : English
    Default                                  : No
    Forced                                   : No

    Text #3
    ID                                       : 10
    Format                                   : PGS
    Codec ID                                 : S_HDMV/PGS
    Codec ID/Info                            : Picture based subtitle format used on BDs/HD-DVDs
    Duration                                 : 1 h 22 min
    Language                                 : English
    Default                                  : No
    Forced                                   : No

    Menu
    00:00:00.000                             : :Chapter 1
    00:07:30.283                             : :Chapter 2
    00:14:10.099                             : :Chapter 3
    00:23:22.985                             : :Chapter 4
    00:31:36.645                             : :Chapter 5
    00:39:30.034                             : :Chapter 6
    00:47:16.375                             : :Chapter 7
    00:54:34.146                             : :Chapter 8
    01:02:24.157                             : :Chapter 9
    01:08:55.214                             : :Chapter 10
    01:14:09.737                             : :Chapter 11
    01:17:44.618                             : :Chapter 12













    armen, PeterPetrenko, Olenid, dj1120,

    + Pridaj vlastnu verziu tohto torrentu +


    Upozornenie:
    Ziadny zo zobrazených súborov sa nenachádza na tomto serveri. Server slúzi len k síreniu vlastnorucne vytvorených aplikácií, videí, hudby ai. Autori stránok nenesú ziadnu zodpovednost za zverejnené odkazy, komentáre a obsah súborov. Vsetky komentáre, odkazy, súbory ktoré by svojou povahou mohli byt v rozpore zo zákonmi sem vkladáte na vlastnú zodpovednost. Autori stránok si vyhradzujú právo cenzúry odkazov, komentárov príp. súborov, ktoré by svojou povahou mohli byt v rozpore zo zákonmi a dobrými mravmi. Dodrzujte pravidlá!





    0
    mrkarda
    Ratio 1.43

    Member+

    14/06/2024 04.59.42
    HD kvalita super ale cz titulky nikde


    --------------
    >> 14/06/2024 09.10.55
    UPLOADER: no tazko hd zohnat  ja som to stahol ces japonsku stranku a som rad ze je aspon ENG


    --------------
    >> 14/06/2024 18.26.54
    mrkarda: na konoze jsou externi titulky, ale vubec to tam nesedi v tyhle verzi zkusi msi s tim nejak pohrat tak uvidime

    0
    Grifinczdk
    Ratio 5.39

    Member+

    13/06/2024 02.35.50
    hodte to pls s cz titulky. děkuju


    Back

    Na serveru se nenalézají zádne soubory. Za odkazy jsou výhradně zodpovědní uzivatelé a návstěvníci tohoto trackeru. Administrátor není zodpovědný za pridaný obsah ani za skody zpusobené uzivateli. Nesmíte pouzívat tuto webovou stránku pro distribuovaní nebo download zádného materiálu pokud nemáte povolení od príslusného vlastníka práv. Uzivatelé jsou zodpovědní za dodrzování těchto pravidel a podmínek. Owner má právo kdykoliv změnit pravidla tohoto trackeru.

    [ Script trval: 0.057 sec. ] - [ GZIP: enabled ]
    Je zhruba 23:29
    sql

    TOPlist