Tvoj účet nieje VIP.
Preto sú tvoje funkcie a možnosti značne obmedzené.
Pre aktiváciu VIP klikni sem.

Naruto bonusy/Specialy 1-4 cz titulky | SkTorrent.eu

Cz-SkTorrent open Tracker, na volné zdieľanie súborov. Pridajte sa k našej komunite a získajte prístup k tisícom torrentov.

  • vysoká rýchlosť
  • úplne zdarma
  • prevažne Slovenská a Česká scéna
  • ste tu s nami už 10 rokov - Ďakujeme
  • Vitaj Guest (Login) Ako stahovat
    torrenty?
    Torrenty:
    v1 textová
    v2 obrázková
    Ako sa stat
    Uploaderom
    Online
    Filmy
    Forum
    Pravidlá
    SkTSocial
    BitTorrent
    klient
    Meno: Heslo:
    Zaregistrovat
    Po zaregistrovaní mozte volne stahovat
    Zabudol som heslo

    Naruto bonusy/Specialy  1-4 cz titulky Názov:Naruto bonusy/Specialy 1-4 cz titulky Hodnocení: Stiahnut
    Pozriet Online
    Kategória:Seriál - Velikost:1.3 GB BitTorrent klient
    Pridaný: Súbory:
    Skontrolován:2022-12-03 Peerov:3 (Seed: 3, Leech: 0)
    Zaner:Akcni,Animovany,Dobrodruzny,Fantasy Uploader:Uvidis, az ked budes
    VIP
    Kúp nám Pivo 1,10€

    Kúp nám Pivo
    Pridaj do zalozky
    Pridaj do zalozky



    naruto-special-4-velky-sportovni-festival-cz-full-hd


    General
    Complete name                            : C:\Users\Renátka\Downloads\Naruto bonusy?\naruto-special-4-velky-sportovni-festival-cz-full-hd.mp4
    Format                                   : MPEG-4
    Format profile                           : Base Media
    Codec ID                                 : isom (isom/mp42)
    File size                                : 668 MiB
    Duration                                 : 11 min 9 s
    Overall bit rate                         : 8 375 kb/s
    Encoded date                             : UTC 1972-11-30 18:58:51
    Tagged date                              : UTC 1972-11-30 18:58:51

    Video
    ID                                       : 1
    Format                                   : AVC
    Format/Info                              : Advanced Video Codec
    Format profile                           : Baseline@L4
    Format settings                          : 4 Ref Frames
    Format settings, CABAC                   : No
    Format settings, Reference frames        : 4 frames
    Codec ID                                 : avc1
    Codec ID/Info                            : Advanced Video Coding
    Duration                                 : 11 min 9 s
    Bit rate                                 : 8 180 kb/s
    Width                                    : 1 920 pixels
    Height                                   : 1 080 pixels
    Display aspect ratio                     : 16:9
    Frame rate mode                          : Constant
    Frame rate                               : 25.000 FPS
    Standard                                 : PAL
    Color space                              : YUV
    Chroma subsampling                       : 4:2:0
    Bit depth                                : 8 bits
    Scan type                                : Progressive
    Bits/(Pixel*Frame)                       : 0.158
    Stream size                              : 653 MiB (98%)
    Language                                 : enu
    Encoded date                             : UTC 1972-11-30 18:58:51
    Tagged date                              : UTC 1972-11-30 18:58:51
    Color range                              : Full
    Color primaries                          : BT.601 PAL
    Transfer characteristics                 : BT.470 System B/G
    Matrix coefficients                      : BT.470 System B/G
    Codec configuration box                  : avcC

    Audio
    ID                                       : 2
    Format                                   : AAC LC
    Format/Info                              : Advanced Audio Codec Low Complexity
    Codec ID                                 : mp4a-40-2
    Duration                                 : 11 min 9 s
    Source duration                          : 11 min 9 s
    Bit rate mode                            : Constant
    Nominal bit rate                         : 192 kb/s
    Channel(s)                               : 2 channels
    Channel layout                           : L R
    Sampling rate                            : 44.1 kHz
    Frame rate                               : 43.066 FPS (1024 SPF)
    Compression mode                         : Lossy
    Source stream size                       : 15.3 MiB (2%)
    Language                                 : enu
    Encoded date                             : UTC 1972-11-30 18:58:51
    Tagged date                              : UTC 1972-11-30 18:58:51
    mdhd_Duration                            : 669402




    Naruto Special 3 - Jounin vs Genin




    General
    Complete name                            : C:\Users\Renátka\Downloads\Naruto bonusy?\Naruto Special 3 - Jounin vs Genin.avi
    Format                                   : AVI
    Format/Info                              : Audio Video Interleave
    File size                                : 230 MiB
    Duration                                 : 26 min 10 s
    Overall bit rate                         : 1 229 kb/s
    Writing application                      : VirtualDubMod 1.5.10.2 (build 2542/release)
    Writing library                          : VirtualDubMod build 2542/release

    Video
    ID                                       : 0
    Format                                   : MPEG-4 Visual
    Format profile                           : Advanced Simple@L5
    Format settings                          : BVOP1
    Format settings, BVOP                    : 1
    Format settings, QPel                    : No
    Format settings, GMC                     : No warppoints
    Format settings, Matrix                  : Default (H.263)
    Muxing mode                              : Packed bitstream
    Codec ID                                 : XVID
    Codec ID/Hint                            : XviD
    Duration                                 : 26 min 10 s
    Bit rate                                 : 1 091 kb/s
    Width                                    : 640 pixels
    Height                                   : 480 pixels
    Display aspect ratio                     : 4:3
    Frame rate                               : 23.976 (24000/1001) FPS
    Color space                              : YUV
    Chroma subsampling                       : 4:2:0
    Bit depth                                : 8 bits
    Scan type                                : Progressive
    Compression mode                         : Lossy
    Bits/(Pixel*Frame)                       : 0.148
    Stream size                              : 204 MiB (89%)
    Writing library                          : XviD 62

    Audio
    ID                                       : 1
    Format                                   : MPEG Audio
    Format version                           : Version 1
    Format profile                           : Layer 3
    Format settings                          : Joint stereo
    Codec ID                                 : 55
    Codec ID/Hint                            : MP3
    Duration                                 : 26 min 10 s
    Bit rate mode                            : Constant
    Bit rate                                 : 128 kb/s
    Channel(s)                               : 2 channels
    Sampling rate                            : 44.1 kHz
    Frame rate                               : 38.281 FPS (1152 SPF)
    Compression mode                         : Lossy
    Stream size                              : 24.0 MiB (10%)
    Alignment                                : Split across interleaves
    Interleave, duration                     : 42  ms (1.00 video frame)
    Interleave, preload duration             : 500  ms
    Writing library                          : LAME3.92
    Encoding settings                        : -m j -V 1 -q 0 -lowpass 19.5 -b 128



    Naruto Special 2 - Boj za Skrytou Vodopádovou

    General
    Complete name                            : C:\Users\Renátka\Downloads\Naruto bonusy?\Naruto Special 2 - Boj za Skrytou Vodopádovou.avi
    Format                                   : AVI
    Format/Info                              : Audio Video Interleave
    File size                                : 300 MiB
    Duration                                 : 40 min 0 s
    Overall bit rate                         : 1 048 kb/s
    Writing application                      : VirtualDubMod 1.5.10.2 (build 2542/release)
    Writing library                          : VirtualDubMod build 2542/release

    Video
    ID                                       : 0
    Format                                   : MPEG-4 Visual
    Format profile                           : Advanced Simple@L5
    Format settings                          : BVOP1
    Format settings, BVOP                    : 1
    Format settings, QPel                    : No
    Format settings, GMC                     : No warppoints
    Format settings, Matrix                  : Default (H.263)
    Muxing mode                              : Packed bitstream
    Codec ID                                 : XVID
    Codec ID/Hint                            : XviD
    Duration                                 : 40 min 0 s
    Bit rate                                 : 911 kb/s
    Width                                    : 640 pixels
    Height                                   : 480 pixels
    Display aspect ratio                     : 4:3
    Frame rate                               : 23.976 (24000/1001) FPS
    Color space                              : YUV
    Chroma subsampling                       : 4:2:0
    Bit depth                                : 8 bits
    Scan type                                : Progressive
    Compression mode                         : Lossy
    Bits/(Pixel*Frame)                       : 0.124
    Stream size                              : 261 MiB (87%)
    Writing library                          : XviD 62

    Audio
    ID                                       : 1
    Format                                   : MPEG Audio
    Format version                           : Version 1
    Format profile                           : Layer 3
    Format settings                          : Joint stereo / MS Stereo
    Codec ID                                 : 55
    Codec ID/Hint                            : MP3
    Duration                                 : 40 min 0 s
    Bit rate mode                            : Constant
    Bit rate                                 : 128 kb/s
    Channel(s)                               : 2 channels
    Sampling rate                            : 48.0 kHz
    Frame rate                               : 41.667 FPS (1152 SPF)
    Compression mode                         : Lossy
    Stream size                              : 36.6 MiB (12%)
    Alignment                                : Aligned on interleaves
    Interleave, duration                     : 42  ms (1.00 video frame)
    Interleave, preload duration             : 504  ms
    Writing library                          : LAME3.95
    Encoding settings                        : -m j -V 4 -q 3 -lowpass 17.5 -b 128



    Naruto Special 1 - Hledání červeného čtyřlístku




    http://e-posta.eu/torrent/obrazky/files/huntersk035/naruto/Naruto%20Special%201%20-%20Hledání%20červeného%20čtyřlístku.avi_thumbs_%5B2022.12.03_19.34.17%5D.jpg




    General
    Complete name                            : C:\Users\Renátka\Downloads\Naruto bonusy?\Naruto Special 1 - Hledání červeného čtyřlístku.avi
    Format                                   : AVI
    Format/Info                              : Audio Video Interleave
    File size                                : 145 MiB
    Duration                                 : 17 min 2 s
    Overall bit rate                         : 1 189 kb/s
    Writing application                      : VirtualDubMod 1.5.10.2 (build 2542/release)
    Writing library                          : VirtualDubMod build 2542/release

    Video
    ID                                       : 0
    Format                                   : MPEG-4 Visual
    Format profile                           : Advanced Simple@L5
    Format settings                          : BVOP1
    Format settings, BVOP                    : 1
    Format settings, QPel                    : No
    Format settings, GMC                     : No warppoints
    Format settings, Matrix                  : Default (H.263)
    Muxing mode                              : Packed bitstream
    Codec ID                                 : XVID
    Codec ID/Hint                            : XviD
    Duration                                 : 17 min 2 s
    Bit rate                                 : 1 052 kb/s
    Width                                    : 640 pixels
    Height                                   : 480 pixels
    Display aspect ratio                     : 4:3
    Frame rate                               : 23.976 (24000/1001) FPS
    Color space                              : YUV
    Chroma subsampling                       : 4:2:0
    Bit depth                                : 8 bits
    Scan type                                : Progressive
    Compression mode                         : Lossy
    Bits/(Pixel*Frame)                       : 0.143
    Stream size                              : 128 MiB (88%)
    Writing library                          : XviD 62

    Audio
    ID                                       : 1
    Format                                   : MPEG Audio
    Format version                           : Version 1
    Format profile                           : Layer 3
    Format settings                          : Joint stereo / MS Stereo
    Codec ID                                 : 55
    Codec ID/Hint                            : MP3
    Duration                                 : 17 min 2 s
    Bit rate mode                            : Constant
    Bit rate                                 : 128 kb/s
    Channel(s)                               : 2 channels
    Sampling rate                            : 48.0 kHz
    Compression mode                         : Lossy
    Stream size                              : 15.6 MiB (11%)
    Alignment                                : Split across interleaves
    Interleave, duration                     : 42  ms (1.00 video frame)
    Interleave, preload duration             : 500  ms









    huntersk035, pohee,

    + Pridaj vlastnu verziu tohto torrentu +


    Upozornenie:
    Ziadny zo zobrazených súborov sa nenachádza na tomto serveri. Server slúzi len k síreniu vlastnorucne vytvorených aplikácií, videí, hudby ai. Autori stránok nenesú ziadnu zodpovednost za zverejnené odkazy, komentáre a obsah súborov. Vsetky komentáre, odkazy, súbory ktoré by svojou povahou mohli byt v rozpore zo zákonmi sem vkladáte na vlastnú zodpovednost. Autori stránok si vyhradzujú právo cenzúry odkazov, komentárov príp. súborov, ktoré by svojou povahou mohli byt v rozpore zo zákonmi a dobrými mravmi. Dodrzujte pravidlá!


    No comments...


    Back

    Na serveru se nenalézají zádne soubory. Za odkazy jsou výhradně zodpovědní uzivatelé a návstěvníci tohoto trackeru. Administrátor není zodpovědný za pridaný obsah ani za skody zpusobené uzivateli. Nesmíte pouzívat tuto webovou stránku pro distribuovaní nebo download zádného materiálu pokud nemáte povolení od príslusného vlastníka práv. Uzivatelé jsou zodpovědní za dodrzování těchto pravidel a podmínek. Owner má právo kdykoliv změnit pravidla tohoto trackeru.

    [ Script trval: 0.076 sec. ] - [ GZIP: enabled ]
    Je zhruba 20:32
    sql

    TOPlist