Tvoj účet nieje VIP.
Preto sú tvoje funkcie a možnosti značne obmedzené.
Pre aktiváciu VIP klikni sem.

Nebe muze pockat / Heaven Can Wait (1978)(Mastered)(Hevc)(1080p)(BluRay)(English-CZ) = CSFD 65% | SkTorrent.eu

Cz-SkTorrent open Tracker, na volné zdielanie súborov. Pridajte sa k nasej komunite a získajte pristup k tisícom torrentov.

  • vysoká rýchlost
  • úplne zdarma
  • prevazne Slovenska a Ceska scena
  • ste tu s nami uz 5 rokov - Dakujeme
  • Vitaj Guest (Login) Ako stahovat
    torrenty?
    Torrenty:
    v1 textová
    v2 obrázková
    v3 online filmy
    Ako sa stat
    Uploaderom
    Online
    Filmy
    Forum
    Pravidlá
    BitTorrent
    klient
    Meno: Heslo:
    Zaregistrovat
    Po zaregistrovaní mozte volne stahovat
    Zabudol som heslo

    Torrent's details
    Nebe muze pockat / Heaven Can Wait (1978)(Mastered)(Hevc)(1080p)(BluRay)(English-CZ) = CSFD 65% Názov:Nebe muze pockat / Heaven Can Wait (1978)(Mastered)(Hevc)(1080p)(BluRay)(English-CZ) = CSFD 65% Hodnocení: Stiahnut
    Pozriet Online
    Kategória:Filmy CZ/SK dabing Velikost:1.4 GB BitTorrent klient
    Pridaný: Súbory:
    Skontrolován:2022-04-03 Peerov:15 (Seed: 15, Leech: 0)
    Zaner:Fantasy,Komedie,Romanticky,Sportovni Uploader:Uvidis, az ked budes
    VIP
    Kúp nám Pivo 1,10€

    Kúp nám Pivo
    Podporte nas na Facebooku !
    Pridaj do zalozky
    Pridaj do zalozky






    [center]





    Movie Name: Heaven Can Wait (1978)(Mastered)
    IMDb Rating: 6.9/10

    Quality: 1080p (BluRay)
    Language: English (AAC 2.0) Czech (AAC 2.0)
    Subtitles: English/Czech
    Director: Warren Beatty, Buck Henry
    Writers: Elaine May (screenplay) Warren Beatty (screenplay) Harry Segall (based upon a play by)
    Genres: Comedy | Romance | Fantasy |


    A Los Angeles Rams quarterback, accidentally taken away from his body by an overanxious angel before he was meant to die, returns to life in the body of a recently murdered millionaire.
    ***
    Joe Pendleton (Warren Beatty) se na vlastní kůži přesvědčí, že smrtí vše jen začíná. Jako záložní obránce fotbalového týmu Los Angeles Rams měl autonehodu, následkem čehož byla jeho duše andělem předčasně nachystána k odbavení na věčnost. Joeova houževnatost se „odletu“ směr destinace Nebe brání, seč může, a fotbalistovi je nakonec dána druhá šance. Má to ale háček. Joe se musí převtělit do role zámožného průmyslníka Lea Farnswortha, který se netěší přízni široké společnosti a ještě více leží v žaludku své manželce s tajemníkem, jež jdou společně Leovi po krku. Olej do ohně přileje Betty Loganová (Julie Christieová), půvabná ekologická aktivistka, která chce stůj co stůj zamezit ničivým praktikám Leova obchodního impéria. A Super Bowl je na spadnutí…






    [/center]

    Format                                   : Matroska
    Format version                           : Version 4
    File size                                : 1.41 GiB
    Duration                                 : 1 h 41 min
    Overall bit rate                         : 1 994 kb/s
    Encoded date                             : UTC 2020-10-28 05:35:05
    Writing application                      : mkvmerge v49.0.0 ('Sick Of Losing Soulmates') 64-bit
    Writing library                          : libebml v1.4.0 + libmatroska v1.6.1
    Cover                                    : Yes
    Attachments                              : cover.jpg

    Video
    ID                                       : 1
    Format                                   : HEVC
    Format/Info                              : High Efficiency Video Coding
    Format profile                           : Main 10@L4@Main
    Codec ID                                 : V_MPEGH/ISO/HEVC
    Duration                                 : 1 h 41 min
    Bit rate                                 : 1 801 kb/s
    Width                                    : 1 920 pixels
    Height                                   : 1 080 pixels
    Display aspect ratio                     : 16:9
    Frame rate mode                          : Constant
    Frame rate                               : 23.976 (24000/1001) FPS
    Color space                              : YUV
    Chroma subsampling                       : 4:2:0
    Bit depth                                : 10 bits
    Bits/(Pixel*Frame)                       : 0.036
    Stream size                              : 1.27 GiB (90%)
    Writing library                          : x265 1.5+88-0e89af0781ee:[Windows][GCC 4.8.2][64 bit] 16bpp
    Encoding settings                        : wpp / ctu=64 / min-cu-size=8 / max-tu-size=32 / tu-intra-depth=1 / tu-inter-depth=1 / me=2 / subme=3 / merange=44 / no-rect / no-amp / max-merge=3 / temporal-mvp / no-early-skip / rdpenalty=0 / no-tskip / no-tskip-fast / strong-intra-smoothing / no-lossless / no-cu-lossless / no-constrained-intra / no-fast-intra / open-gop / no-temporal-layers / interlace=0 / keyint=250 / min-keyint=23 / scenecut=40 / rc-lookahead=20 / bframes=4 / bframe-bias=0 / b-adapt=2 / ref=3 / weightp / no-weightb / aq-mode=1 / aq-strength=1.00 / cbqpoffs=0 / crqpoffs=0 / rd=3 / psy-rd=0.80 / psy-rdoq=0.00 / signhide / lft / no-sao / no-sao-non-deblock / b-pyramid / cutree / rc=2 / pass / bitrate=1800 / qcomp=0.80 / qpmin=0 / qpmax=51 / qpstep=4 / cplxblur=20.0 / qblur=0.5 / ipratio=1.40 / pbratio=1.30
    Default                                  : Yes
    Forced                                   : No

    Audio #1
    ID                                       : 2
    Format                                   : AAC LC SBR
    Format/Info                              : Advanced Audio Codec Low Complexity with Spectral Band Replication
    Commercial name                          : HE-AAC
    Format settings                          : Explicit
    Codec ID                                 : A_AAC-2
    Duration                                 : 1 h 41 min
    Bit rate                                 : 96.0 kb/s
    Channel(s)                               : 2 channels
    Channel layout                           : L R
    Sampling rate                            : 48.0 kHz
    Frame rate                               : 23.438 FPS (2048 SPF)
    Compression mode                         : Lossy
    Delay relative to video                  : 31 ms
    Stream size                              : 68.7 MiB (5%)
    Language                                 : English
    Default                                  : Yes
    Forced                                   : No

    Audio #2
    ID                                       : 3
    Format                                   : AAC LC SBR
    Format/Info                              : Advanced Audio Codec Low Complexity with Spectral Band Replication
    Commercial name                          : HE-AAC
    Format settings                          : Explicit
    Codec ID                                 : A_AAC-2
    Duration                                 : 1 h 41 min
    Bit rate                                 : 96.0 kb/s
    Channel(s)                               : 2 channels
    Channel layout                           : L R
    Sampling rate                            : 48.0 kHz
    Frame rate                               : 23.438 FPS (2048 SPF)
    Compression mode                         : Lossy
    Delay relative to video                  : 31 ms
    Stream size                              : 68.7 MiB (5%)
    Language                                 : Czech
    Default                                  : No
    Forced                                   : No

    Text #1
    ID                                       : 4
    Format                                   : UTF-8
    Codec ID                                 : S_TEXT/UTF8
    Codec ID/Info                            : UTF-8 Plain Text
    Duration                                 : 1 h 37 min
    Bit rate                                 : 68 b/s
    Count of elements                        : 1079
    Stream size                              : 48.6 KiB (0%)
    Language                                 : Czech
    Default                                  : Yes
    Forced                                   : No

    Text #2
    ID                                       : 5
    Format                                   : UTF-8
    Codec ID                                 : S_TEXT/UTF8
    Codec ID/Info                            : UTF-8 Plain Text
    Duration                                 : 1 h 39 min
    Bit rate                                 : 62 b/s
    Count of elements                        : 1079
    Stream size                              : 45.9 KiB (0%)
    Language                                 : English
    Default                                  : No
    Forced                                   : No

    Menu
    00:00:00.170                             : en:Studio Logos
    00:00:17.260                             : en:The Coach Discusses Joe's Status, Opening Credits; Multiple Locations
    00:04:20.422                             : en:Max Visits Joe on His Birthday; Joe's House
    00:07:02.492                             : en:Joe Rides His Bike and Runs Into Trouble; Road
    00:08:12.897                             : en:Joe Meets His Escort and Mr. Jordan; Way Station
    00:14:57.102                             : en:Joe, His Escort, and Mr. Jordan Talk about a Solution; Multiple Locations
    00:17:02.119                             : en:Joe and Mr. Jordan Check Out a Body; Farnsworth Mansion
    00:19:52.133                             : en:Betty Meets with Tony as Joe Listens to Her Story; Farnsworth's Library
    00:22:09.143                             : en:Joe Takes Over Farnsworth's Body; Farnsworth Mansion
    00:23:50.149                             : en:Tony and Julia Talk while Joe Is Dressing as Farnsworth; Multiple Locations
    00:24:51.175                             : en:Betty Confronts Joe about the Refinery; Farnsworth's Library
    00:29:12.190                             : en:Tony Speaks to Julia, then with Joe about the Board Meeting; Mansion Garden
    00:31:43.197                             : en:Julia and Tony Speculate about Their Situation; Farnsworth Mansion
    00:32:52.215                             : en:Joe Prepares for the Board Meeting; Multiple Locations
    00:35:53.220                             : en:Joe Plays His Sax and Dresses for the Board Meeting; Multiple Locations
    00:36:44.231                             : en:Joe Flies to the Board Meeting and Talks with Reporters; Multiple Locations
    00:38:34.245                             : en:Joe Invites the Reporters into the Board Meeting; Board Room
    00:40:46.258                             : en:Joe Makes a Football Analogy in Describing the Company; Board Room
    00:42:57.274                             : en:Mr. Jordan and the Escort Visit Joe; Farnsworth Mansion
    00:45:40.297                             : en:Betty Comes to See Joe and They Go Out to Dinner; Multiple Locations
    00:49:34.311                             : en:Joe Talks with The Escort and Makes a Request of Tony; Multiple Loctions
    00:51:50.315                             : en:Joe Escapes a Disaster and Visits Julia's Bedroom; Multiple Locations
    00:52:30.354                             : en:Max Arrives at the Mansion and Meets with Joe; Farnsworth's Ballroom
    00:58:55.361                             : en:Max Comes to a Realization; Farnsworth's Ballroom
    01:00:14.371                             : en:Joe Practices Football with the Servants; Mansion Garden
    01:01:47.375                             : en:Joe Gives Max News and the Trainer Talks to the Rams; Multiple Locations
    01:02:32.411                             : en:Joe Tries Out for the Rams Football Team; Football Stadium
    01:08:34.425                             : en:Julia and Tony Talk as They Watch Joe's Party; Farnsworth Mansion
    01:10:50.439                             : en:Joe and Betty Walk and Talk in the Garden; Farnsworth Mansion
    01:13:14.457                             : en:The Escort Visits Joe and Gives Him Some News: Farnsworth Mansion
    01:16:09.467                             : en:Mr. Jordan Tells Joe That He Must Abide by the Plan; Farnswoth Mansion
    01:17:54.471                             : en:Everyone Is Looking for Farnsworth; Farnsworth Mansion
    01:18:34.479                             : en:Lt. Krim Investigates Farnsworth's Disappearance; Krim's Office
    01:19:47.490                             : en:The Superbowl Begins as Krim Investigates Farnsworth; Multiple Locations
    01:21:44.511                             : en:As Krim Asks Questions, the Gardener Works by the Well; Multiple Locations
    01:25:14.533                             : en:The Gardner Finds Farnsworth; Multiple Locations
    01:28:45.546                             : en:The Team Celebrates as Mr. Jordan Says Goodbye to Joe; Locker Room
    01:30:57.568                             : en:Max Realizes that Joe No Longer Remembers His Past; Locker Room
    01:34:37.591                             : en:Joe and Betty Meet Again; Stadium
    01:38:31.607                             : en:End Credits












    Madzi, tibotibo, llebo4, PetrJaros, pohee, Jambo27,

    + Pridaj vlastnu verziu tohto torrentu +


    Upozornenie:
    Ziadny zo zobrazených súborov sa nenachádza na tomto serveri. Server slúzi len k síreniu vlastnorucne vytvorených aplikácií, videí, hudby ai. Autori stránok nenesú ziadnu zodpovednost za zverejnené odkazy, komentáre a obsah súborov. Vsetky komentáre, odkazy, súbory ktoré by svojou povahou mohli byt v rozpore zo zákonmi sem vkladáte na vlastnú zodpovednost. Autori stránok si vyhradzujú právo cenzúry odkazov, komentárov príp. súborov, ktoré by svojou povahou mohli byt v rozpore zo zákonmi a dobrými mravmi. Dodrzujte pravidlá!


    No comments...


    Back

    Na serveru se nenalézají zádne soubory. Za odkazy jsou výhradně zodpovědní uzivatelé a návstěvníci tohoto trackeru. Administrátor není zodpovědný za pridaný obsah ani za skody zpusobené uzivateli. Rozsirovat stránku nebo její obsah bez souhlasu ownera je zakázano. Nesmíte pouzívat tuto webovou stránku pro distribuovaní nebo download zádného materiálu pokud nemáte povolení od príslusného vlastníka práv. Uzivatelé jsou zodpovědní za dodrzování těchto pravidel a podmínek. Owner má právo kdykoliv změnit pravidla tohoto trackeru.

    [ Script trval: 0.024 sec. ] - [ GZIP: enabled ]
    Je zhruba 20:44
    sql

    TOPlist