Tvoj účet nieje VIP.
Preto sú tvoje funkcie a možnosti značne obmedzené.
Pre aktiváciu VIP klikni sem.

Nebezpecna rychlost / Speed (1994)(CZ/EN)(2160p 4K BDRemux)(HDR10 - Dolby Vision) = CSFD 78% | SkTorrent.eu

Cz-SkTorrent open Tracker, na volné zdieľanie súborov. Pridajte sa k našej komunite a získajte prístup k tisícom torrentov.

  • vysoká rýchlosť
  • úplne zdarma
  • prevažne Slovenská a Česká scéna
  • ste tu s nami už 10 rokov - Ďakujeme
  • Vitaj Guest (Login) Ako stahovat
    torrenty?
    Torrenty:
    v1 textová
    v2 obrázková
    Ako sa stat
    Uploaderom
    Online
    Filmy
    Forum
    Pravidlá
    SkTSocial
    BitTorrent
    klient
    Meno: Heslo:
    Zaregistrovat
    Po zaregistrovaní mozte volne stahovat
    Zabudol som heslo

    Nebezpecna rychlost / Speed (1994)(CZ/EN)(2160p 4K BDRemux)(HDR10 - Dolby Vision) = CSFD 78% Názov:Nebezpecna rychlost / Speed (1994)(CZ/EN)(2160p 4K BDRemux)(HDR10 - Dolby Vision) = CSFD 78% Hodnocení: Stiahnut
    Pozriet Online
    Kategória:UHD Filmy - Velikost:51.7 GB BitTorrent klient
    Pridaný: Súbory:
    Skontrolován:2024-02-12 Peerov:8 (Seed: 6, Leech: 2)
    Zaner:Akcni,Thriller Uploader:Uvidis, az ked budes
    VIP
    Kúp nám Pivo 1,10€

    Kúp nám Pivo

    Pridaj do zalozky
    Pridaj do zalozky






    SPEED

    Nebezpecna rychlost

    (1994)(CZ/EN) = CSFD 78%


    2160p 4K UHD DV BDRemux – 63,9 Mb/s Bitrate verzia









    Video: 2160p 4K UHD - Dolby Vision - HDR10
    Jazyk: CZ 5.1 AAC LC / EN 5.1 DTS / EN 5.1 AAC LC
    Titulky: CZ
    Akcni / Thriller
    USA  1994
    155 min


    PRODUKCE & HERCI


    Režie: Jan de Bont
    Scénář: Graham Yost
    Kamera: Andrzej Bartkowiak
    Hudba: Mark Mancina
    Hrají: (Keanu Reeves - ), Sandra Bullock, Dennis Hopper, Joe Morton, Jeff Daniels, Glenn Plummer, Richard Lineback, Beau Starr, John Capodice, Richard Schiff, Beth Grant, Alan Ruck, Patrick Fischler, James DuMont, Carlos Carrasco, Thomas Rosales Jr., Robert Mailhouse, Carmen Williams, Julia Vera, Daniel Villarreal, Hawthorne James, Mark Gordon, Jordan Lund, Susan Barnes, Marylou Lim, Sandy Martin, J. David Jones, Loyda Ramos, Rick Dano, Patrick John Hurley, Natsuko Ohama, Brian Grant, Barry Kramer, Todd Gordon



    OBSAH

    Ve výškové budově je surově zavražděn noční hlídač a vzápětí vybuchne bomba, která zničí výtahová lana. Celkem osmnáct cestujících zůstává uvězněno ve výtahu, který prudce padá dolů, než ho zastaví silné brzdy. Ale i ty hodlá atentátník odstřelit, pokud nedostane tři miliony dolarů. Do akce jsou nasazeni špičkoví losangelští policisté Jack Traven a jeho přítel Harry. Při riskantní a nebezpečné akci se jim podaří dostat cestující z výtahu, atentátník se ale zmocní Harryho a vyhrožuje jeho zabitím, jestliže nedostane peníze. Jack se odhodlá k akci, svého přítele postřelí na noze a ten atentátníkovi unikne ze sevření. Šílenec však uteče… Oba policisté jsou vyznamenáni za odvahu a večer společně oslavují. Zejména Harry je poněkud společensky unavený. Druhý den dostane Jack zprávu, že byl unesen autobus, na němž je připevněna bomba. Přihlásí se i atentátník: o své peníze rozhodně nechce přijít. Zatímco Jack jde do akce přímo, Harry je s ním ve spojení a řídí operace. Jack se dostane do autobusu, kde ve zmatku vystřelí jakýsi muž, který si myslí, že jde policie po něm. Bob, řidič autobusu, je těžce zraněn a za volant usedá jedna z cestujících, studentka Annie. Autobus se podle pokynů atentátníka nesmí dostat pod určitou rychlost, jinak nálož vybuchne... Jackovi se nejprve podaří vyjednat, aby byl z autobusu vysazen zraněný Bob. Pak se v panice snaží vystoupit další cestující, starší žena, je ale usmrcena. Jak se zdá, atentátník vše pozorně sleduje díky přímým záběrům vrtulníků, které celou akci přenášejí. Brzy se ukáže, že na dálnici, kam autobus míří, je patnáctimetrová díra...


    SCREEN




    TRAILER




    Formát                                   : Matroska
    Format version                           : Version 4
    Velikost souboru                         : 51,7 GiB
    Duration                                 : 1 h 55 min
    Overall bit rate mode                    : Variable
    Celkový BitRate                          : 63,9 Mb/s
    Encoded date                             : UTC 2024-02-07 14:55:20
    Použitý software                         : mkvmerge v76.0 ('Celebration') 64-bit
    Enkódoval                                : libebml v1.4.4 + libmatroska v1.7.1
    IMDB                                     : tt0111257
    TMDB                                     : movie/1637

    Video
    ID                                       : 1
    Formát                                   : HEVC
    Formát/Info                              : High Efficiency Video Coding
    Format profile                           : Main 10@L5.1@High
    HDR format                               : Dolby Vision, Version 1.0, dvhe.08.06, BL+RPU, HDR10 compatible / SMPTE ST 2086, HDR10 compatible
    Codec ID                                 : V_MPEGH/ISO/HEVC
    Duration                                 : 1 h 55 min
    Bit rate                                 : 59,6 Mb/s
    Šířka                                    : 3 840pixely
    Výška                                    : 2 160pixely
    Poměr stran                              : 16:9
    Frame rate mode                          : Constant
    Frame rate                               : 23,976 (24000/1001) FPS
    Color space                              : YUV
    Chroma subsampling                       : 4:2:0 (Type 2)
    Bit depth                                : 10 bits
    Bits/(Pixel*Frame)                       : 0.300
    Stream size                              : 48,3 GiB (93%)
    Enkódoval                                : ATEME Titan File 3.9.6 (4.9.6.2)        
    Default                                  : Ano
    Forced                                   : Ne
    Color range                              : Limited
    Color primaries                          : BT.2020
    Transfer characteristics                 : PQ
    Matrix coefficients                      : BT.2020 non-constant
    Mastering display color primaries        : Display P3
    Mastering display luminance              : min: 0.0050 cd/m2, max: 1000 cd/m2

    Audio #1
    ID                                       : 2
    Formát                                   : AAC LC SBR
    Formát/Info                              : Advanced Audio Codec Low Complexity with Spectral Band Replication
    Commercial name                          : HE-AAC
    Format settings                          : Explicit
    Codec ID                                 : A_AAC-2
    Duration                                 : 1 h 55 min
    Bit rate                                 : 226 kb/s
    Kanál(y)                                 : 6 kanály
    Channel layout                           : C L R Ls Rs LFE
    Sampling rate                            : 48,0 kHz
    Frame rate                               : 23,438 FPS (2048 SPF)
    Compression mode                         : Lossy
    Video delay                              : 1 s 526 ms
    Stream size                              : 187 MiB (0%)
    Jazyk                                    : Czech
    Default                                  : Ne
    Forced                                   : Ne

    Audio #2
    ID                                       : 3
    Formát                                   : DTS XLL
    Formát/Info                              : Digital Theater Systems
    Commercial name                          : DTS-HD Master Audio
    Codec ID                                 : A_DTS
    Duration                                 : 1 h 55 min
    Bit rate mode                            : Variable
    Bit rate                                 : 3 830 kb/s
    Kanál(y)                                 : 6 kanály
    Channel layout                           : C L R Ls Rs LFE
    Sampling rate                            : 48,0 kHz
    Frame rate                               : 93,750 FPS (512 SPF)
    Bit depth                                : 24 bits
    Compression mode                         : Lossless
    Stream size                              : 3,10 GiB (6%)
    Jazyk                                    : English
    Default                                  : Ano
    Forced                                   : Ne

    Audio #3
    ID                                       : 4
    Formát                                   : AAC LC SBR
    Formát/Info                              : Advanced Audio Codec Low Complexity with Spectral Band Replication
    Commercial name                          : HE-AAC
    Format settings                          : Explicit
    Codec ID                                 : A_AAC-2
    Duration                                 : 1 h 55 min
    Bit rate                                 : 226 kb/s
    Kanál(y)                                 : 6 kanály
    Channel layout                           : C L R Ls Rs LFE
    Sampling rate                            : 48,0 kHz
    Frame rate                               : 23,438 FPS (2048 SPF)
    Compression mode                         : Lossy
    Video delay                              : 1 s 500 ms
    Stream size                              : 188 MiB (0%)
    Jazyk                                    : English
    Default                                  : Ano
    Forced                                   : Ne

    Text
    ID                                       : 5
    Formát                                   : PGS
    Muxing mode                              : zlib
    Codec ID                                 : S_HDMV/PGS
    Codec ID/Info                            : Picture based subtitle format used on BDs/HD-DVDs
    Duration                                 : 1 h 52 min
    Bit rate                                 : 24,7 kb/s
    Count of elements                        : 2020
    Stream size                              : 19,9 MiB (0%)
    Jazyk                                    : Czech
    Default                                  : Ne
    Forced                                   : Ne

    Menu #1
    00:00:00.000                             : en:Main Titles
    00:04:20.218                             : en:Hole the Elevator
    00:06:04.948                             : en:L.a.P.D. Bomb Squad
    00:08:27.757                             : enown the Shaft
    00:11:18.553                             : en:A Gut Feeling
    00:15:24.382                             : enerilous Rescue
    00:17:38.891                             : en:He's Here!
    00:23:22.484                             : en:Heroes
    00:26:44.436                             : en:The Game Begins
    00:31:02.444                             : en:The Bus
    00:35:06.187                             : en:High Speed Pursuit with "Tune Man"
    00:40:24.255                             : en:Jack on Board
    00:44:33.421                             : en:Under the Bus
    00:48:47.174                             : en:Through the Streets; a Hard Right
    00:53:09.853                             : en:An Empty Freeway
    00:55:44.883                             : enassenger Transfer
    00:58:52.487                             : en:Watch Your Step
    01:02:20.111                             : en:Leap of Faith
    01:07:39.055                             : en:Circling the Runway
    01:08:55.214                             : en:Jack Gets Off
    01:11:52.183                             : en:The Plan
    01:15:17.513                             : en:Howard Payne
    01:15:41.203                             : en:Belly of the Beast
    01:19:34.186                             : en:A Costly Mistake
    01:23:28.253                             : en:Video Games
    01:27:05.303                             : en:Evacuation
    01:32:57.864                             : en:The Trap
    01:37:06.696                             : en:Going Underground
    01:40:28.898                             : en:On the Train
    01:42:20.551                             : en:Howard's Headache
    01:46:06.443                             : en:Full Speed Ahead
    01:50:06.934                             : en:End Credits





    VDAKA ZA BODY a SEEDUJTE







    Nebezpečná rýchlosť 1 - online








    Nebezpečná rýchlosť 2 - online











    Vantri, maysa33, pepa49,

    + Pridaj vlastnu verziu tohto torrentu +


    Upozornenie:
    Ziadny zo zobrazených súborov sa nenachádza na tomto serveri. Server slúzi len k síreniu vlastnorucne vytvorených aplikácií, videí, hudby ai. Autori stránok nenesú ziadnu zodpovednost za zverejnené odkazy, komentáre a obsah súborov. Vsetky komentáre, odkazy, súbory ktoré by svojou povahou mohli byt v rozpore zo zákonmi sem vkladáte na vlastnú zodpovednost. Autori stránok si vyhradzujú právo cenzúry odkazov, komentárov príp. súborov, ktoré by svojou povahou mohli byt v rozpore zo zákonmi a dobrými mravmi. Dodrzujte pravidlá!





    0
    bokeh
    Ratio 0.01

    VIP

    13/02/2024 11.14.34
    Jsou tam opravdu EN titulky? v Media Info je nevidim...


    --------------
    >> 13/02/2024 11.42.55
    UPLOADER: nie sorry
    asi som ich pri prerabke odskrtol
    Uploader
    12/02/2024 23.00.32
    2. cast ma 42% hodnotenie, takze odomna nebude


    --------------
    >> 13/02/2024 03.00.02
    rohlik50: Tak to je škoda, jelikož jednička už je tu teď v UHD 2x, ale dvojka zatím ani jednou a přitom je to taky ok film. Hodnocení na ČSFD je často bohužel velmi zavádějící, stačí když se vyjádří jeden rádoby kritik a spousta dalších pak klidně slepě následuje.
    Osobně se mi líbí spousta filmů, které tam mají mnohem nižší hodnocení, než spousta jiných, které mne nenadchly ač mají vysoké hodnocení. ČSFD beru jen jako zdroj popisku obsahu, seznamu herců apod. Procenta jsou velmi často mimo


    --------------
    >> 13/02/2024 07.52.04
    UPLOADER: Dobry pokus rohlik50
    Jednotku som sem dal, lebo DolbyVision


    Back

    Na serveru se nenalézají zádne soubory. Za odkazy jsou výhradně zodpovědní uzivatelé a návstěvníci tohoto trackeru. Administrátor není zodpovědný za pridaný obsah ani za skody zpusobené uzivateli. Nesmíte pouzívat tuto webovou stránku pro distribuovaní nebo download zádného materiálu pokud nemáte povolení od príslusného vlastníka práv. Uzivatelé jsou zodpovědní za dodrzování těchto pravidel a podmínek. Owner má právo kdykoliv změnit pravidla tohoto trackeru.

    [ Script trval: 0.187 sec. ] - [ GZIP: enabled ]
    Je zhruba 21:02
    sql

    TOPlist