Tvoj účet nieje VIP.
Preto sú tvoje funkcie a možnosti značne obmedzené.
Pre aktiváciu VIP klikni sem.

Nejdelsi jizda / The Longest Ride (2015)(CZ/EN)(2160p 4K Web-Dl)(HDR) = CSFD 74% | SkTorrent.eu

Cz-SkTorrent open Tracker, na volné zdielanie súborov. Pridajte sa k nasej komunite a získajte pristup k tisícom torrentov.

  • vysoká rýchlost
  • úplne zdarma
  • prevazne Slovenska a Ceska scena
  • ste tu s nami uz 5 rokov - Dakujeme
  • Vitaj Guest (Login) Ako stahovat
    torrenty?
    Torrenty:
    v1 textová
    v2 obrázková
    v3 online filmy
    Ako sa stat
    Uploaderom
    Online
    Filmy
    Forum
    Pravidlá
    BitTorrent
    klient
    Meno: Heslo:
    Zaregistrovat
    Po zaregistrovaní mozte volne stahovat
    Zabudol som heslo

    Torrent's details
    Nejdelsi jizda / The Longest Ride (2015)(CZ/EN)(2160p 4K Web-Dl)(HDR) = CSFD 74% Názov:Nejdelsi jizda / The Longest Ride (2015)(CZ/EN)(2160p 4K Web-Dl)(HDR) = CSFD 74% Hodnocení: Stiahnut
    Pozriet Online
    Kategória:UHD Filmy Velikost:19.5 GB BitTorrent klient
    Pridaný: Súbory:
    Skontrolován:2021-07-27 Peerov:8 (Seed: 8, Leech: 0)
    Zaner:Drama,Romanticky Uploader:Uvidis, az ked budes
    VIP
    Kúp nám Pivo 1,10€

    Kúp nám Pivo
    Podporte nas na Facebooku !
    Pridaj do zalozky
    Pridaj do zalozky






    Nejdelsi jizda / The Longest Ride
    (2015)(CZ/EN) = CSFD 74%

    2160p 4K HDR10 - HEVC – 21.8 Mb/s Bitrate verzia








    Video: 2160p 4K HDR10 - HEVC
    Jazyk: CZ 5.1 AAC / EN 7.1 DTS-HD / EN 5.1 DD
    Romanticky / Drama
    USA 2015
    128 min

    PRODUKCE & HERCI

    Režie: George Tillman Jr.
    Předloha: Nicholas Sparks (kniha)
    Scénář: Craig Bolotin
    Kamera: David Tattersall
    Hudba: Mark Isham
    Hrají: Britt Robertson, Scott Eastwood, Alan Alda, Jack Huston, Oona Chaplin, Melissa Benoist, Lolita Davidovich, Danny Vinson, Gloria Reuben, Michael Lowry, Amy Parrish, Peter Jurasik, Shane Callahan, Mark Jeffrey Miller, Brett Edwards, Rochelle Aycoth, Joe Montanti, Hunter Burke, Todd Truley, Courtney Lakin, Hayley Lovitt, Darrell Rackley, Logan O'Neill, Jason Michael Elliott, Deaven Brooks, Jon Stafford, Melissa Eastwood, Stephanie McIntyre, Leon Lewis, Tracey Bonner

    OBSAH

    Luke je kovboj, který se živí jízdou na býkovi. Při jedné soutěží ho ale býk velmi zraní a Luke je mimo hru celý jeden rok. Když se Luke vrací do sedla, objeví se na soutěži i krásná Sophia, která je velmi pilnou studentkou a za dva měsíce se stěhuje na prestižní stáž do New Yorku. Ten večer Luke pozve Sophii na rande, ale Sophia jeho volání nejprve ignoruje, protože podle ní nemá vztah na dálku cenu. Nakonec si to ale rozmyslí a Luke pro ně připraví velmi krásný večer. Cestou z rande dvojice zachrání staršího muže, který měl autonehodu. Sophia z hořícího vozu zachrání i krabici, o kterou ji muž požádal. V nemocnici se Luke a Sophia rozdělí. Sophia předá zraněnému muži jeho krabici, v níž jsou milostné dopisy, které psal svojí lásce Ruth. Muž se jmenuje Ira a už moc dobře nevidí, takže si dopisy sám přečíst nemůže, Sophia ho tedy začne pravidelně navštěvovat a dopisy mu předčítat. Ira žil na maloměstě, kam se Ruth přestěhovala z Rakouska, odkud její židovská rodina utekla před Hitlerem a druhou světovou válkou. Ira si nejprve nemyslel, že by u Ruth mohl mít šanci, ale ona ho nakonec sama pobídla, aby ji pozval na schůzku.

    SCREEN



    TRAILER






    Hlavní
    Formát : Matroska
    Format version : Version 4
    Velikost souboru : 19,5 GiB
    Duration : 2 h 8 min
    Overall bit rate mode : Variable
    Celkový BitRate : 21,8 Mb/s
    Encoded date : UTC 2021-07-26 20:21:15
    Použitý software : mkvmerge v31.0.0 ('Dolores In A Shoestand') 64-bit
    Enkódoval : libebml v1.3.6 + libmatroska v1.4.9

    Video
    ID : 1
    Formát : HEVC
    Formát/Info : High Efficiency Video Coding
    Format profile : Main 10@L5@High
    HDR format : SMPTE ST 2086, HDR10 compatible
    Codec ID : V_MPEGH/ISO/HEVC
    Duration : 2 h 8 min
    Bit rate : 16,1 Mb/s
    Šířka : 3 840pixely
    Výška : 2 160pixely
    Poměr stran : 16:9
    Frame rate mode : Constant
    Frame rate : 23,976 (24000/1001) FPS
    Color space : YUV
    Chroma subsampling : 4:2:0
    Bit depth : 10 bits
    Bits/(Pixel*Frame) : 0.081
    Stream size : 14,5 GiB (74%)
    Jazyk : English
    Default : Ano
    Forced : Ne
    Color range : Limited
    Color primaries : BT.2020
    Transfer characteristics : PQ
    Matrix coefficients : BT.2020 non-constant
    Mastering display color primaries : Display P3
    Mastering display luminance : min: 0.0001 cd/m2, max: 1000 cd/m2

    Audio #1
    ID : 2
    Formát : DTS ES XLL
    Formát/Info : Digital Theater Systems
    Commercial name : DTS-HD Master Audio
    Codec ID : A_DTS
    Duration : 2 h 8 min
    Bit rate mode : Variable
    Bit rate : 4 688 kb/s
    Kanál(y) : 8 kanály
    Channel layout : C L R Ls Rs LFE Lb Rb
    Sampling rate : 48,0 kHz
    Frame rate : 93,750 FPS (512 SPF)
    Bit depth : 24 bits
    Compression mode : Lossless
    Stream size : 4,20 GiB (22%)
    Jazyk : English
    Default : Ne
    Forced : Ne

    Audio #2
    ID : 3
    Formát : AC-3
    Formát/Info : Audio Coding 3
    Commercial name : Dolby Digital
    Codec ID : A_AC3
    Duration : 2 h 8 min
    Bit rate mode : Constant
    Bit rate : 640 kb/s
    Kanál(y) : 6 kanály
    Channel layout : L R C LFE Ls Rs
    Sampling rate : 48,0 kHz
    Frame rate : 31,250 FPS (1536 SPF)
    Compression mode : Lossy
    Stream size : 587 MiB (3%)
    Jazyk : English
    Service kind : Complete Main
    Default : Ne
    Forced : Ne

    Audio #3
    ID : 4
    Formát : AAC LC
    Formát/Info : Advanced Audio Codec Low Complexity
    Codec ID : A_AAC-2
    Duration : 2 h 8 min
    Bit rate : 317 kb/s
    Kanál(y) : 6 kanály
    Channel layout : C L R Ls Rs LFE
    Sampling rate : 48,0 kHz
    Frame rate : 46,875 FPS (1024 SPF)
    Compression mode : Lossy
    Video delay : 1 s 0 ms
    Stream size : 291 MiB (1%)
    Jazyk : Czech
    Default : Ano
    Forced : Ano

    Menu
    00:00:00.000 : Chapter 01
    00:02:14.134 : Chapter 02
    00:07:17.312 : Chapter 03
    00:10:37.303 : Chapter 04
    00:12:45.306 : Chapter 05
    00:15:42.400 : Chapter 06
    00:20:10.543 : Chapter 07
    00:23:01.547 : Chapter 08
    00:26:05.355 : Chapter 09
    00:29:10.999 : Chapter 10
    00:33:02.689 : Chapter 11
    00:37:17.235 : Chapter 12
    00:44:10.106 : Chapter 13
    00:49:00.479 : Chapter 14
    00:53:25.035 : Chapter 15
    00:57:34.117 : Chapter 16
    01:01:41.823 : Chapter 17
    01:05:02.524 : Chapter 18
    01:09:37.507 : Chapter 19
    01:12:00.650 : Chapter 20
    01:16:16.989 : Chapter 21
    01:20:56.018 : Chapter 22
    01:25:02.889 : Chapter 23
    01:29:16.142 : Chapter 24
    01:32:50.398 : Chapter 25
    01:37:16.622 : Chapter 26
    01:39:57.617 : Chapter 27
    01:42:08.914 : Chapter 28
    01:45:22.066 : Chapter 29
    01:52:08.388 : Chapter 30
    01:57:41.846 : Chapter 31
    02:02:01.314 : Chapter 32







    VDAKA ZA BODY a SEEDUJTE





    ONLINE











    pepa49, Jozef195, ringel164,

    + Pridaj vlastnu verziu tohto torrentu +


    Upozornenie:
    Ziadny zo zobrazených súborov sa nenachádza na tomto serveri. Server slúzi len k síreniu vlastnorucne vytvorených aplikácií, videí, hudby ai. Autori stránok nenesú ziadnu zodpovednost za zverejnené odkazy, komentáre a obsah súborov. Vsetky komentáre, odkazy, súbory ktoré by svojou povahou mohli byt v rozpore zo zákonmi sem vkladáte na vlastnú zodpovednost. Autori stránok si vyhradzujú právo cenzúry odkazov, komentárov príp. súborov, ktoré by svojou povahou mohli byt v rozpore zo zákonmi a dobrými mravmi. Dodrzujte pravidlá!


    No comments...


    Back

    Na serveru se nenalézají zádne soubory. Za odkazy jsou výhradně zodpovědní uzivatelé a návstěvníci tohoto trackeru. Administrátor není zodpovědný za pridaný obsah ani za skody zpusobené uzivateli. Rozsirovat stránku nebo její obsah bez souhlasu ownera je zakázano. Nesmíte pouzívat tuto webovou stránku pro distribuovaní nebo download zádného materiálu pokud nemáte povolení od príslusného vlastníka práv. Uzivatelé jsou zodpovědní za dodrzování těchto pravidel a podmínek. Owner má právo kdykoliv změnit pravidla tohoto trackeru.

    [ Script trval: 0.023 sec. ] - [ GZIP: enabled ]
    Je zhruba 15:56

    TOPlist