Tvoj účet nieje VIP.
Preto sú tvoje funkcie a možnosti značne obmedzené.
Pre aktiváciu VIP klikni sem.

Nesnaze pana uceniho / Il secondo tragico Fantozzi (1976)(CZ) = CSFD 64% | SkTorrent.eu

Cz-SkTorrent open Tracker, na volné zdieľanie súborov. Pridajte sa k našej komunite a získajte prístup k tisícom torrentov.

  • vysoká rýchlosť
  • úplne zdarma
  • prevažne Slovenská a Česká scéna
  • ste tu s nami už 10 rokov - Ďakujeme
  • Vitaj Guest (Login) Ako stahovat
    torrenty?
    Torrenty:
    v1 textová
    v2 obrázková
    Ako sa stat
    Uploaderom
    Online
    Filmy
    Forum
    Pravidlá
    SkTSocial
    BitTorrent
    klient
    Meno: Heslo:
    Zaregistrovat
    Po zaregistrovaní mozte volne stahovat
    Zabudol som heslo

    Nesnaze pana uceniho / Il secondo tragico Fantozzi (1976)(CZ) = CSFD 64% Názov:Nesnaze pana uceniho / Il secondo tragico Fantozzi (1976)(CZ) = CSFD 64% Hodnocení:N/A Stiahnut
    Pozriet Online
    Kategória:Filmy CZ/SK dabing - Velikost:699.6 MB BitTorrent klient
    Pridaný: Súbory:
    Skontrolován:2023-01-22 Peerov:14 (Seed: 14, Leech: 0)
    Zaner:Komedie Uploader:Uvidis, az ked budes
    VIP
    Kúp nám Pivo 1,10€

    Kúp nám Pivo

    Pridaj do zalozky
    Pridaj do zalozky




    Hlavné parametre
    Celý názov a cesta                       : Fantozzi - Druha tragedia Fantozziho 1976 (cz).avi
    Formát                                   : AVI
    Formát/Info                              : Audio Video Interleave
    Veľkosť súboru                           : 700 MiB
    Trvanie                                  : 1 h 44 min
    Overall bit rate mode                    : Variabilný dátový tok
    Celkový dátový tok                       : 932 kb/s
    Použitý software                         : VirtualDubMod 1.5.10.2 (build 2540/release)
    Zakódoval                                : VirtualDubMod build 2540/release

    Video
    ID                                       : 0
    Formát                                   : MPEG-4 Visual
    Profil formátu                           : Advanced Simple@L5
    Nastavenia formátu                       : BVOP1 / Custom Matrix
    Format settings, BVOP                    : 1
    Format settings, QPel                    : Nie
    Format settings, GMC                     : No warppoints
    Format settings, Matrix                  : Vlastné
    Označenie kodeku                         : XVID
    Označenie kodeku/Hint                    : XviD
    Trvanie                                  : 1 h 44 min
    Dátový tok                               : 832 kb/s
    Šírka                                    : 720 pixelov
    Výška                                    : 400 pixelov
    Pomer strán                              : 16:9
    Frekvencia snímok                        : 25,000 snímok/sek.
    Color space                              : YUV
    Chroma subsampling                       : 4:2:0
    Bit depth                                : 8 bitov
    Scan type                                : Progresívne
    Compression mode                         : Lossy
    Bitov/(Bod*Snímka)                       : 0.116
    Stream size                              : 625 MiB (89%)
    Zakódoval                                : XviD 1.2.0.dev47 (UTC 2006-11-01)

    Audio
    ID                                       : 1
    Formát                                   : MPEG Audio
    Format version                           : Version 1
    Profil formátu                           : Layer 3
    Nastavenia formátu                       : Joint stereo / MS Stereo
    Označenie kodeku                         : 55
    Označenie kodeku/Hint                    : MP3
    Trvanie                                  : 1 h 44 min
    Režim dátového toku                      : Variabilný dátový tok
    Dátový tok                               : 86,6 kb/s
    Nominal bit rate                         : 128 kb/s
    Kanál(y)                                 : 2 kanály
    Sampling rate                            : 48,0 kHz
    Frekvencia snímok                        : 41,667 snímok/sek. (1152 SPF)
    Compression mode                         : Lossy
    Stream size                              : 65,1 MiB (9%)
    Alignment                                : Aligned on interleaves
    Interleave, duration                     : 24  ms (0,60 video frame)
    Interleave, preload duration             : 460  ms
    Zakódoval                                : LAME3.97
    Nastavenie kodéru                        : -m j -V 4 -q 2 -lowpass 17 --abr 128
    Jazyk                                    : Česky



    Komédia
    Taliansko, 1976, 90 min
    Réžia: Luciano Salce
    Scenár: Leonardo Benvenuti
    Kamera: Erico Menczer
    Hudba: Fabio Frizzi
    Hrajú: Paolo Villaggio, Anna Mazzamauro, Gigi Reder, Plinio Fernando, Nello Pazzafini, Liù Bosisio, Giuseppe Anatrelli, Dino Emanuel
    Jazyk:Česky



    Obsah

    V pořádí druhý film o účetním Fantozzim je opět plný Fantozziových trapasů a šílených nápadů jeho kolegy Filiniho. Ugo Fantozzi tentokrát jede jako maskot do kasina se svým šéfem, vypraví se na lov vyzbrojený pouze prakem a navštíví cirkus, odkud odejde trochu netradičním způsobem - je vystřelen z děla. A samozřejmě nechybí jeho milovaná žena Pina a krásná dcera Mariangela... (oficiálny text distribútora)

    https://www.csfd.cz/film/32757-druha-tragedia-fantozziho/prehlad/







    margharethe, svedak, teapel, AcePeter61, palo0123, Threadt, Doudy61,

    + Pridaj vlastnu verziu tohto torrentu +


    Upozornenie:
    Ziadny zo zobrazených súborov sa nenachádza na tomto serveri. Server slúzi len k síreniu vlastnorucne vytvorených aplikácií, videí, hudby ai. Autori stránok nenesú ziadnu zodpovednost za zverejnené odkazy, komentáre a obsah súborov. Vsetky komentáre, odkazy, súbory ktoré by svojou povahou mohli byt v rozpore zo zákonmi sem vkladáte na vlastnú zodpovednost. Autori stránok si vyhradzujú právo cenzúry odkazov, komentárov príp. súborov, ktoré by svojou povahou mohli byt v rozpore zo zákonmi a dobrými mravmi. Dodrzujte pravidlá!


    No comments...


    Back

    Na serveru se nenalézají zádne soubory. Za odkazy jsou výhradně zodpovědní uzivatelé a návstěvníci tohoto trackeru. Administrátor není zodpovědný za pridaný obsah ani za skody zpusobené uzivateli. Nesmíte pouzívat tuto webovou stránku pro distribuovaní nebo download zádného materiálu pokud nemáte povolení od príslusného vlastníka práv. Uzivatelé jsou zodpovědní za dodrzování těchto pravidel a podmínek. Owner má právo kdykoliv změnit pravidla tohoto trackeru.

    [ Script trval: 0.076 sec. ] - [ GZIP: enabled ]
    Je zhruba 12:03
    memcache

    TOPlist