Tvoj účet nieje VIP.
Preto sú tvoje funkcie a možnosti značne obmedzené.
Pre aktiváciu VIP klikni sem.

Next (2007)(CZ) = CSFD 64% | SkTorrent.eu

Cz-SkTorrent open Tracker, na volné zdielanie súborov. Pridajte sa k nasej komunite a získajte pristup k tisícom torrentov.

  • vysoká rýchlost
  • úplne zdarma
  • prevazne Slovenska a Ceska scena
  • ste tu s nami uz 5 rokov - Dakujeme
  • Vitaj Guest (Login) Ako stahovat
    torrenty?
    Torrenty:
    v1 textová
    v2 obrázková
    v3 online filmy
    Ako sa stat
    Uploaderom
    Online
    Filmy
    Forum
    Pravidlá
    BitTorrent
    klient
    Meno: Heslo:
    Zaregistrovat
    Po zaregistrovaní mozte volne stahovat
    Zabudol som heslo

    Torrent's details
    Next (2007)(CZ) = CSFD 64% Názov:Next (2007)(CZ) = CSFD 64% Hodnocení: Stiahnut
    Pozriet Online
    Kategória:Filmy CZ/SK dabing Velikost:696.6 MB BitTorrent klient
    Pridaný: Súbory:
    Skontrolován:2014-02-14 Peerov:0 (Seed: 0, Leech: 0)
    Zaner:Akcni,Sci-Fi,Thriller Uploader:Uvidis, az ked budes
    VIP
    Kúp nám Pivo 1,10€

    Kúp nám Pivo
    Podporte nas na Facebooku !
    Pridaj do zalozky
    Pridaj do zalozky




    Jazyk: Dabing CZ
    Titulky: Ne
    Odkaz na CSFD: http://www.csfd.cz/film/215209-next/
    Rok vydání: 2007
    Délka: 1:33:40

    Akční / Sci-Fi / Thriller

    USA, 2007, 96 min
    Režie: Lee Tamahori
    Předloha: Philip Kindred Dick (kniha)
    Scénář: Gary Goldman, Jonathan Hensleigh, Paul Bernbaum
    Kamera: David Tattersall
    Hudba: Mark Isham
    Hrají:
    (Nicolas Cage - ), Julianne Moore, Jessica Biel, Thomas Kretschmann, Tory Kittles, Jason Butler Harner, Jim Beaver, Enzo Cilenti, Michael Trucco, Sergej Trifunović, Patricia Prata, Jessica Barth, Bonita Friedericy, Peter Falk, Miranda Frigon, Paul Rae

    OBAL:



    Popis:
    NEXT je adaptací povídky Golden Man od jednoho z největších velikánů světové sci-fi literatury P.K. Dicka. Cris Johnston (N. Cage) je obdařen schopností vidět do budoucnosti a také určovat správný tok budoucího času. Novodobý mesiáš, který musí spasit lidstvo a především svou rodinu. Někdy to ale osud zařídí tak, že si musíte vybrat jedno, nebo druhé... Možná ale existuje ještě nějaká DALŠÍ... možnost.




    Kvalita zvuku:
    Format: MPEG Audio
    Format version: Version 1
    Format profile: Layer 3
    Mode: Joint stereo
    Mode extension: MS Stereo
    Codec ID: 55
    Codec ID/Hint: MP3
    Duration: 1h 33mn
    Bit rate mode: Variable
    Bit rate: 146 Kbps
    Channel(s): 2 channels
    Sampling rate: 48.0 KHz
    Compression mode: Lossy
    Stream size: 99.2 MiB (14%)
    Alignment: Aligned on interleaves
    Interleave, duration: 24 ms (0.60 video frame)
    Interleave, preload duration: 119 ms
    Writing library: LAME3.90.
    Encoding settings: -m j -V 4 -q 2 -lowpass 18 --abr 146

    Kvalita videa:
    Format: MPEG-4 Visual
    Format profile: Advanced Simple@L5
    Format settings, BVOP: 2
    Format settings, QPel: No
    Format settings, GMC: No warppoints
    Format settings, Matrix: Default (H.263)
    Muxing mode: Packed bitstream
    Codec ID: XVID
    Codec ID/Hint: XviD
    Duration: 1h 33mn
    Bit rate: 879 Kbps
    Width: 624 pixels
    Height: 256 pixels
    Display aspect ratio: 2.40:1
    Frame rate: 25.000 fps
    Color space: YUV
    Chroma subsampling: 4:2:0
    Bit depth: 8 bits
    Scan type: Progressive
    Compression mode: Lossy
    Bits/(Pixel*Frame): 0.220
    Stream size: 589 MiB (85%)
    Writing library: XviD 1.1.0 (UTC 2005-11-22)





    + Pridaj vlastnu verziu tohto torrentu +


    Upozornenie:
    Ziadny zo zobrazených súborov sa nenachádza na tomto serveri. Server slúzi len k síreniu vlastnorucne vytvorených aplikácií, videí, hudby ai. Autori stránok nenesú ziadnu zodpovednost za zverejnené odkazy, komentáre a obsah súborov. Vsetky komentáre, odkazy, súbory ktoré by svojou povahou mohli byt v rozpore zo zákonmi sem vkladáte na vlastnú zodpovednost. Autori stránok si vyhradzujú právo cenzúry odkazov, komentárov príp. súborov, ktoré by svojou povahou mohli byt v rozpore zo zákonmi a dobrými mravmi. Dodrzujte pravidlá!


    No comments...


    Back

    Na serveru se nenalézají zádne soubory. Za odkazy jsou výhradně zodpovědní uzivatelé a návstěvníci tohoto trackeru. Administrátor není zodpovědný za pridaný obsah ani za skody zpusobené uzivateli. Rozsirovat stránku nebo její obsah bez souhlasu ownera je zakázano. Nesmíte pouzívat tuto webovou stránku pro distribuovaní nebo download zádného materiálu pokud nemáte povolení od príslusného vlastníka práv. Uzivatelé jsou zodpovědní za dodrzování těchto pravidel a podmínek. Owner má právo kdykoliv změnit pravidla tohoto trackeru.

    [ Script trval: 0.038 sec. ] - [ GZIP: enabled ]
    BtiTracker (1.4.8) by Btiteam
    Je zhruba 21:50

    TOPlist