Tvoj účet nieje VIP.
Preto sú tvoje funkcie a možnosti značne obmedzené.
Pre aktiváciu VIP klikni sem.

Nezvratny osud / Final Destination 1-5 (2000-2011)(CZ/EN)[1080p] = CSFD 75% | SkTorrent.eu

Cz-SkTorrent open Tracker, na volné zdielanie súborov. Pridajte sa k nasej komunite a získajte pristup k tisícom torrentov.

  • vysoká rýchlost
  • úplne zdarma
  • prevazne Slovenska a Ceska scena
  • ste tu s nami uz 5 rokov - Dakujeme
  • Vitaj Guest (Login) Ako stahovat
    torrenty?
    Torrenty:
    v1 textová
    v2 obrázková
    v3 online filmy
    Ako sa stat
    Uploaderom
    Online
    Filmy
    Forum
    Pravidlá
    BitTorrent
    klient
    pruzinky
    Meno: Heslo:
    Zaregistrovat
    Po zaregistrovaní mozte volne stahovat
    Zabudol som heslo

    Torrent's details
    Nezvratny osud / Final Destination 1-5 (2000-2011)(CZ/EN)[1080p] = CSFD 75% Názov:Nezvratny osud / Final Destination 1-5 (2000-2011)(CZ/EN)[1080p] = CSFD 75% Hodnocení: Stiahnut
    Pozriet Online
    Kategória:HD Filmy Velikost:57.8 GB BitTorrent klient
    Pridaný: Súbory:
    Skontrolován:2019-02-11 Peerov:2 (Seed: 2, Leech: 0)
    Zaner:Horor,Thriller Uploader:Uvidis, az ked budes
    VIP
    Kúp nám Pivo 1,10€

    Kúp nám Pivo
    Podporte nas na Facebooku !
    Pridaj do zalozky
    Pridaj do zalozky








    Nezvratný osud 1


    Rok vydání:2000 
    Jazyk: CZ,EN
    Titulky: CZ,EN 
    ŽŽánr: Horor/Thriller
    Délka: 98 min.




    Obsah:
    Smrt je někde nablízku a Alex Browning má to štěstí (nebo smůlu?), že ví kdy a kde se zubatá objeví. Alexovo zvláštní nadání se poprvé projeví těsně po nástupu na palubu letadla, kterým má, společně se svými spolužáky ze střední školy, letět na školní výlet do Paříže. A právě když už sedí v kabině a se zapnutým bezpečnostním pásem čeká na odlet, promítne se mu před očima hrozivá vize, ve které prožije start letadla následovaný explozí, již nikdo z pasažérů nepřežije. Alex propadne panice a vyzývá všechny, aby okamžitě vystoupili, čímž způsobí mezi pasažéry takový rozruch, že jej společně s dalšími šesti spolucestujícími posádka vykáže z letadla. Kromě Alexe se tak ocitnou zpátky na letišti jeho kamarádi Tod a Billy, spolužačka Clear, která instinktivně vycítila, že Alexovy obavy jsou oprávněné, Carter, který se s Alexem v letadle popral a byl za to vyveden i se svou přítelkyní Terry, a jejich učitelka, slečna Lewtonová, která se dobrovolně rozhodla, že se svými studenty počká na další let. Atmosféru vzájemného obviňování za ztrátu půldne v Paříži přeruší výbuch letadla, ke kterému skutečně krátce po startu dojde. Nikdo nechápe, jak mohl Alex katastrofu předvídat, a nakonec, místo aby mu byli vděční, se ho spíš bojí a hledí na něj s nevraživostí. I agenti FBI, kteří ho vyšetřují, si jeho vysvětlení vyslechnou s nedůvěrou a spíše si Alexe zařadí mezi podezřelé. Zvláště když po několika týdnech začínají umírat další z těch, co díky Alexovi přežili. Alex postupně nabývá přesvědčení, že díky jeho předtuše se jim všem sice podařilo smrt obelstít, ale ne nadlouho. Proto se spojí se zbývajícími kamarády, aby společnými silami čelili osudu a vyzráli nad smrtí.


    Mediainfo:


    Format: Matroska
    Format version: Version 4
    File size: 11.4 GiB
    Duration: 1 h 38 min
    Overall bit rate mode: Variable
    Overall bit rate: 16.7 Mb/s
    Encoded date: UTC 2019-01-27 08:06:24
    Writing application: mkvmerge v30.1.0 ('Forever And More' 64-bit
    Writing library: libebml v1.3.6 + libmatroska v1.4.9

    Video
    ID: 1
    Format: AVC
    Format/Info: Advanced Video Codec
    Format profile: High@L4.1
    Format settings: CABAC / 4 Ref Frames
    Format settings, CABAC: Yes
    Format settings, RefFrames: 4 frames
    Codec ID: V_MPEG4/ISO/AVC
    Duration: 1 h 38 min
    Bit rate: 15.0 Mb/s
    Width: 1 920 pixels
    Height: 1 080 pixels
    Display aspect ratio: 16:9
    Frame rate mode: Constant
    Frame rate: 23.976 (24000/1001) FPS
    Color space: YUV
    Chroma subsampling: 4:2:0
    Bit depth: 8 bits
    Scan type: Progressive
    Bits/(Pixel*Frame): 0.302
    Stream size: 10.1 GiB (88%)
    Writing library: x264 core 148 r2708 86b7198
    Encoding settings: cabac=1 / ref=3 / deblock=1:0:0 / analyse=0x3:0x113 / me=hex / subme=7 / psy=1 / psy_rd=1.00:0.00 / mixed_ref=1 / me_range=16 / chroma_me=1 / trellis=1 / 8x8dct=1 / cqm=0 / deadzone=21,11 / fast_pskip=1 / chroma_qp_offset=-2 / threads=18 / lookahead_threads=3 / sliced_threads=0 / nr=0 / decimate=1 / interlaced=0 / bluray_compat=0 / constrained_intra=0 / bframes=3 / b_pyramid=2 / b_adapt=1 / b_bias=0 / direct=1 / weightb=1 / open_gop=0 / weightp=2 / keyint=240 / keyint_min=24 / scenecut=40 / intra_refresh=0 / rc_lookahead=40 / rc=abr / mbtree=1 / bitrate=15000 / ratetol=1.0 / qcomp=0.60 / qpmin=0 / qpmax=69 / qpstep=4 / vbv_maxrate=62500 / vbv_bufsize=78125 / nal_hrd=none / filler=0 / ip_ratio=1.40 / aq=1:1.00
    Default: Yes
    Forced: No
    Color range: Limited
    Color primaries: BT.709
    Transfer characteristics: BT.709
    Matrix coefficients: BT.709

    Audio #1
    ID: 2
    Format: MLP FBA
    Format/Info: Meridian Lossless Packing FBA
    Commercial name: Dolby TrueHD
    Codec ID: A_TRUEHD
    Duration: 1 h 38 min
    Bit rate mode: Variable
    Bit rate: 1 643 kb/s
    Maximum bit rate: 3 168 kb/s
    Channel(s): 6 channels
    Channel layout: L R C LFE Ls Rs
    Sampling rate: 48.0 kHz
    Frame rate: 1 200.000 FPS (40 SPF)
    Compression mode: Lossless
    Stream size: 1.13 GiB (10%)
    Title: ENG
    Language: English
    Default: Yes
    Forced: No

    Audio #2
    ID: 4
    Format: AC-3
    Format/Info: Audio Coding 3
    Commercial name: Dolby Digital
    Codec ID: A_AC3
    Duration: 1 h 38 min
    Bit rate mode: Constant
    Bit rate: 256 kb/s
    Channel(s): 2 channels
    Channel layout: L R
    Sampling rate: 48.0 kHz
    Frame rate: 31.250 FPS (1536 SPF)
    Bit depth: 16 bits
    Compression mode: Lossy
    Stream size: 180 MiB (2%)
    Title: CZE
    Language: Czech
    Service kind: Complete Main
    Default: No
    Forced: No

    Text #1
    ID: 3
    Format: PGS
    Muxing mode: zlib
    Codec ID: S_HDMV/PGS
    Codec ID/Info: Picture based subtitle format used on BDs/HD-DVDs
    Duration: 1 h 34 min
    Bit rate: 26.6 kb/s
    Count of elements: 1914
    Stream size: 18.1 MiB (0%)
    Title: ENG
    Language: English
    Default: No
    Forced: No

    Text #2
    ID: 5
    Format: UTF-8
    Codec ID: S_TEXT/UTF8
    Codec ID/Info: UTF-8 Plain Text
    Duration: 1 h 31 min
    Bit rate: 40 b/s
    Count of elements: 752
    Stream size: 27.0 KiB (0%)
    Title: CZE
    Language: Czech
    Default: Yes
    Forced: No







    Nezvratný osud 2


    Rok vydání: 2003 
    Jazyk: CZ,EN
    Titulky: CZ,EN 
    ŽŽánr: Horor/Thriller/Fantasy
    Délka: 90 min.




    Obsah:
    Clear Riversová (Ali Larterová) jediná prežila katastrofu letu č. 180. Všetci ostatní pasažieri, ktorí rovnako ako ona najprv unikli pádu lietadla, sa neskôr jeden po druhom odporúčali do chladnej náruče smrti. Nezvratný osud si postupne vybral ich životy a vyrovnal tak číslo náhodne prežitých takmer na nulu. Clear vie, že ona je teraz na rade. Že smrť sa na ňu už chystá a len náhoda ich môže zachrániť. Bohužiaľ je jediná, ktorá tomu verí. Všetcia ostatní si myslia, že šok zo smrti jej priateľov bol natoľko silný až stratila súdnosť. Preto ju teraz držia pod zámkom na psychiatrickej klinike, kde si ju môže smrť nájsť pri jednej a tisícej príležitosti. No smrť má zatiaľ inde plné ruky práce. Kimberly Cormanová (A.J.Cooková) má zvláštnu víziu - ona a jej priatelia zomreli na ceste č. 23 pri strašnej zrážke áut, kde lietali časti tiel spolu s kovom a plastovými úlomkami. Bol to nejaký psychický záchvat strachu? Alebo snáď varovanie? Kimberly je na najlepšej ceste do ústavu za Clear. Dožije sa toho vôbec?



    Mediainfo:


    Format: Matroska
    Format version: Version 4
    File size: 12.1 GiB
    Duration: 1 h 30 min
    Overall bit rate mode: Variable
    Overall bit rate: 19.2 Mb/s
    Encoded date: UTC 2019-01-27 08:15:57
    Writing application: mkvmerge v30.1.0 ('Forever And More' 64-bit
    Writing library: libebml v1.3.6 + libmatroska v1.4.9

    Video
    ID: 1
    Format: AVC
    Format/Info: Advanced Video Codec
    Format profile: High@L4.1
    Format settings: CABAC / 4 Ref Frames
    Format settings, CABAC: Yes
    Format settings, RefFrames: 4 frames
    Codec ID: V_MPEG4/ISO/AVC
    Duration: 1 h 30 min
    Bit rate: 15.0 Mb/s
    Width: 1 920 pixels
    Height: 1 080 pixels
    Display aspect ratio: 16:9
    Frame rate mode: Constant
    Frame rate: 23.976 (24000/1001) FPS
    Color space: YUV
    Chroma subsampling: 4:2:0
    Bit depth: 8 bits
    Scan type: Progressive
    Bits/(Pixel*Frame): 0.302
    Stream size: 9.40 GiB (78%)
    Writing library: x264 core 148 r2708 86b7198
    Encoding settings: cabac=1 / ref=3 / deblock=1:0:0 / analyse=0x3:0x113 / me=hex / subme=7 / psy=1 / psy_rd=1.00:0.00 / mixed_ref=1 / me_range=16 / chroma_me=1 / trellis=1 / 8x8dct=1 / cqm=0 / deadzone=21,11 / fast_pskip=1 / chroma_qp_offset=-2 / threads=18 / lookahead_threads=3 / sliced_threads=0 / nr=0 / decimate=1 / interlaced=0 / bluray_compat=0 / constrained_intra=0 / bframes=3 / b_pyramid=2 / b_adapt=1 / b_bias=0 / direct=1 / weightb=1 / open_gop=0 / weightp=2 / keyint=240 / keyint_min=24 / scenecut=40 / intra_refresh=0 / rc_lookahead=40 / rc=abr / mbtree=1 / bitrate=15000 / ratetol=1.0 / qcomp=0.60 / qpmin=0 / qpmax=69 / qpstep=4 / vbv_maxrate=62500 / vbv_bufsize=78125 / nal_hrd=none / filler=0 / ip_ratio=1.40 / aq=1:1.00
    Default: Yes
    Forced: No
    Color range: Limited
    Color primaries: BT.709
    Transfer characteristics: BT.709
    Matrix coefficients: BT.709

    Audio #1
    ID: 2
    Format: MLP FBA
    Format/Info: Meridian Lossless Packing FBA
    Commercial name: Dolby TrueHD
    Codec ID: A_TRUEHD
    Duration: 1 h 30 min
    Bit rate mode: Variable
    Bit rate: 3 598 kb/s
    Maximum bit rate: 5 163 kb/s
    Channel(s): 6 channels
    Channel layout: L R C LFE Ls Rs
    Sampling rate: 48.0 kHz
    Frame rate: 1 200.000 FPS (40 SPF)
    Compression mode: Lossless
    Stream size: 2.27 GiB (19%)
    Title: ENG
    Language: English
    Default: Yes
    Forced: No

    Audio #2
    ID: 5
    Format: AC-3
    Format/Info: Audio Coding 3
    Commercial name: Dolby Digital
    Codec ID: A_AC3
    Duration: 1 h 30 min
    Bit rate mode: Constant
    Bit rate: 640 kb/s
    Channel(s): 6 channels
    Channel layout: L R C LFE Ls Rs
    Sampling rate: 48.0 kHz
    Frame rate: 31.250 FPS (1536 SPF)
    Bit depth: 16 bits
    Compression mode: Lossy
    Delay relative to video: 1 s 416 ms
    Stream size: 413 MiB (3%)
    Title: CZE
    Language: Czech
    Service kind: Complete Main
    Default: No
    Forced: No

    Text #1
    ID: 3
    Format: PGS
    Muxing mode: zlib
    Codec ID: S_HDMV/PGS
    Codec ID/Info: Picture based subtitle format used on BDs/HD-DVDs
    Duration: 1 h 24 min
    Bit rate: 34.2 kb/s
    Count of elements: 1993
    Stream size: 20.8 MiB (0%)
    Title: ENG
    Language: English
    Default: No
    Forced: No

    Text #2
    ID: 4
    Format: UTF-8
    Codec ID: S_TEXT/UTF8
    Codec ID/Info: UTF-8 Plain Text
    Duration: 1 h 24 min
    Bit rate: 47 b/s
    Count of elements: 812
    Stream size: 29.3 KiB (0%)
    Title: CZE
    Language: Czech
    Default: Yes
    Forced: No







    Nezvratný osud 3


    Rok vydání: 2006 
    Jazyk: CZ,EN
    Titulky: CZ,EN  
    ŽŽánr: Horor/Thriller
    Délka: 93 min.




    Obsah:
    V dalším pokračování se tentokrát podíváme do zábavního parku, kde má hlavní hrdinka Wendy předtuchu, že populární horská dráha The Devil's Flight vykolejí a všichni pasažéři zemřou. Podaří se jí pár lidí přesvědčit, aby vystoupili a následně z povzdálí sledují, jak se Wendyna vize uskuteční. Jak ale už víme z předešlých dílů, smrt se nedá oklamat...



    Mediainfo:


    Format: Matroska
    Format version: Version 4
    File size: 12.1 GiB
    Duration: 1 h 32 min
    Overall bit rate mode: Variable
    Overall bit rate: 18.6 Mb/s
    Encoded date: UTC 2019-01-27 10:37:47
    Writing application: mkvmerge v30.1.0 ('Forever And More' 64-bit
    Writing library: libebml v1.3.6 + libmatroska v1.4.9

    Video
    ID: 1
    Format: AVC
    Format/Info: Advanced Video Codec
    Format profile: High@L4.1
    Format settings: CABAC / 4 Ref Frames
    Format settings, CABAC: Yes
    Format settings, RefFrames: 4 frames
    Codec ID: V_MPEG4/ISO/AVC
    Duration: 1 h 32 min
    Bit rate: 15.0 Mb/s
    Width: 1 920 pixels
    Height: 814 pixels
    Display aspect ratio: 2.35:1
    Frame rate mode: Constant
    Frame rate: 23.976 (24000/1001) FPS
    Color space: YUV
    Chroma subsampling: 4:2:0
    Bit depth: 8 bits
    Scan type: Progressive
    Bits/(Pixel*Frame): 0.400
    Stream size: 9.32 GiB (77%)
    Writing library: x264 core 148 r2708 86b7198
    Encoding settings: cabac=1 / ref=3 / deblock=1:0:0 / analyse=0x3:0x113 / me=hex / subme=7 / psy=1 / psy_rd=1.00:0.00 / mixed_ref=1 / me_range=16 / chroma_me=1 / trellis=1 / 8x8dct=1 / cqm=0 / deadzone=21,11 / fast_pskip=1 / chroma_qp_offset=-2 / threads=18 / lookahead_threads=3 / sliced_threads=0 / nr=0 / decimate=1 / interlaced=0 / bluray_compat=0 / constrained_intra=0 / bframes=3 / b_pyramid=2 / b_adapt=1 / b_bias=0 / direct=1 / weightb=1 / open_gop=0 / weightp=2 / keyint=240 / keyint_min=24 / scenecut=40 / intra_refresh=0 / rc_lookahead=40 / rc=abr / mbtree=1 / bitrate=15000 / ratetol=1.0 / qcomp=0.60 / qpmin=0 / qpmax=69 / qpstep=4 / vbv_maxrate=62500 / vbv_bufsize=78125 / nal_hrd=none / filler=0 / ip_ratio=1.40 / aq=1:1.00
    Default: Yes
    Forced: No
    Color range: Limited
    Color primaries: BT.709
    Transfer characteristics: BT.709
    Matrix coefficients: BT.709

    Audio #1
    ID: 2
    Format: MLP FBA
    Format/Info: Meridian Lossless Packing FBA
    Commercial name: Dolby TrueHD
    Codec ID: A_TRUEHD
    Duration: 1 h 32 min
    Bit rate mode: Variable
    Bit rate: 3 523 kb/s
    Maximum bit rate: 5 103 kb/s
    Channel(s): 6 channels
    Channel layout: L R C LFE Ls Rs
    Sampling rate: 48.0 kHz
    Frame rate: 1 200.000 FPS (40 SPF)
    Compression mode: Lossless
    Stream size: 2.28 GiB (19%)
    Title: ENG
    Language: English
    Default: Yes
    Forced: No

    Audio #2
    ID: 5
    Format: AC-3
    Format/Info: Audio Coding 3
    Commercial name: Dolby Digital
    Codec ID: A_AC3
    Duration: 1 h 32 min
    Bit rate mode: Constant
    Bit rate: 640 kb/s
    Channel(s): 6 channels
    Channel layout: L R C LFE Ls Rs
    Sampling rate: 48.0 kHz
    Frame rate: 31.250 FPS (1536 SPF)
    Bit depth: 16 bits
    Compression mode: Lossy
    Delay relative to video: 1 s 520 ms
    Stream size: 425 MiB (3%)
    Title: CZE
    Language: Czech
    Service kind: Complete Main
    Default: No
    Forced: No

    Text #1
    ID: 3
    Format: PGS
    Muxing mode: zlib
    Codec ID: S_HDMV/PGS
    Codec ID/Info: Picture based subtitle format used on BDs/HD-DVDs
    Duration: 1 h 32 min
    Bit rate: 35.5 kb/s
    Count of elements: 2443
    Stream size: 23.4 MiB (0%)
    Title: ENG
    Language: English
    Default: No
    Forced: No

    Text #2
    ID: 4
    Format: UTF-8
    Codec ID: S_TEXT/UTF8
    Codec ID/Info: UTF-8 Plain Text
    Duration: 1 h 26 min
    Bit rate: 51 b/s
    Count of elements: 1122
    Stream size: 32.3 KiB (0%)
    Title: CZE
    Language: Czech
    Default: Yes
    Forced: No







    Nezvratný osud 4


    Rok vydání: 2009 
    Jazyk: CZ,EN
    Titulky: CZ,EN 
    ŽŽánr: Horor/Thriller
    Délka: 78 min.




    Obsah:
    V den, který měl být pohodovým dnem s kamarády na závodech, měl Nick Bannon (Bobby Campo) děsivou předtuchu, že shoda nešťastných náhod způsobí hromadnou havárii závodících aut, že hořící trosky aut budou padat mezi diváky a brutálně zabijí i jeho kamarády a že na něj samotného spadne střecha ochozů. Když se Nick probere ze své hrůzostrašné představy, zpanikaří a přiměje svou přítelkyni Lori (Shantel VanSanten) a jejich kamarády Janet (Haley Webb) a Hunta (Nick Zano), aby odešli…podaří se jim uniknout jen vteřiny před tím, než se Nickova strašná vize stane děsuplnou realitou. Skupinka mladých lidí si myslí, že se jim povedlo podvést smrt, ale bohužel pro Nicka a Lori to je jen začátek. Zlé předtuchy pokračují a přeživší ze závodů umírají jeden po druhém, a to nepředstavitelně krutě. Nick musí přijít na to, jak znovu podvést smrt - a tentokrát definitivně - ještě před tím, než se sám stane obětí svého nezvratného osudu. Film je posledním pokračováním série „Nezvratný osud“ a je prvním 3D filmem, který svým fanouškům nabídne velmi děsivou, vzrušující jízdu.



    Mediainfo:


    Format: Matroska
    Format version: Version 4
    File size: 9.87 GiB
    Duration: 1 h 21 min
    Overall bit rate mode: Variable
    Overall bit rate: 17.3 Mb/s
    Movie name: The Final Destination 3D Half-SBS - AQUA
    Encoded date: UTC 2019-01-27 08:35:55
    Writing application: mkvmerge v30.1.0 ('Forever And More' 64-bit
    Writing library: libebml v1.3.6 + libmatroska v1.4.9

    Video
    ID: 1
    Format: AVC
    Format/Info: Advanced Video Codec
    Format profile: High@L4.1
    Format settings: CABAC / 4 Ref Frames
    Format settings, CABAC: Yes
    Format settings, RefFrames: 4 frames
    Codec ID: V_MPEG4/ISO/AVC
    Duration: 1 h 21 min
    Bit rate: 14.2 Mb/s
    Nominal bit rate: 15.0 Mb/s
    Width: 1 920 pixels
    Height: 798 pixels
    Display aspect ratio: 2.40:1
    Frame rate mode: Constant
    Frame rate: 23.976 (24000/1001) FPS
    Color space: YUV
    Chroma subsampling: 4:2:0
    Bit depth: 8 bits
    Scan type: Progressive
    Bits/(Pixel*Frame): 0.387
    Stream size: 8.11 GiB (82%)
    Writing library: x264 core 142 r2479 dd79a61
    Encoding settings: cabac=1 / ref=3 / deblock=1:0:0 / analyse=0x3:0x113 / me=hex / subme=7 / psy=1 / psy_rd=1.00:0.00 / mixed_ref=1 / me_range=16 / chroma_me=1 / trellis=1 / 8x8dct=1 / cqm=0 / deadzone=21,11 / fast_pskip=1 / chroma_qp_offset=-2 / threads=18 / lookahead_threads=3 / sliced_threads=0 / nr=0 / decimate=1 / interlaced=0 / bluray_compat=0 / constrained_intra=0 / bframes=3 / b_pyramid=2 / b_adapt=1 / b_bias=0 / direct=1 / weightb=1 / open_gop=0 / weightp=2 / keyint=240 / keyint_min=24 / scenecut=40 / intra_refresh=0 / rc_lookahead=40 / rc=abr / mbtree=1 / bitrate=15000 / ratetol=1.0 / qcomp=0.60 / qpmin=0 / qpmax=69 / qpstep=4 / vbv_maxrate=62500 / vbv_bufsize=78125 / nal_hrd=none / filler=0 / ip_ratio=1.40 / aq=1:1.00
    Default: Yes
    Forced: No
    Color range: Limited
    Color primaries: BT.709
    Transfer characteristics: BT.709
    Matrix coefficients: BT.709

    Audio #1
    ID: 2
    Format: DTS XLL
    Format/Info: Digital Theater Systems
    Commercial name: DTS-HD Master Audio
    Codec ID: A_DTS
    Duration: 1 h 21 min
    Bit rate mode: Variable
    Bit rate: 2 420 kb/s
    Channel(s): 6 channels
    Channel layout: C L R Ls Rs LFE
    Sampling rate: 48.0 kHz
    Frame rate: 93.750 FPS (512 SPF)
    Bit depth: 16 bits
    Compression mode: Lossless
    Stream size: 1.38 GiB (14%)
    Title: ENG
    Language: English
    Default: Yes
    Forced: No

    Audio #2
    ID: 5
    Format: AC-3
    Format/Info: Audio Coding 3
    Commercial name: Dolby Digital
    Codec ID: A_AC3
    Duration: 1 h 21 min
    Bit rate mode: Constant
    Bit rate: 640 kb/s
    Channel(s): 6 channels
    Channel layout: L R C LFE Ls Rs
    Sampling rate: 48.0 kHz
    Frame rate: 31.250 FPS (1536 SPF)
    Bit depth: 16 bits
    Compression mode: Lossy
    Delay relative to video: -83 ms
    Stream size: 374 MiB (4%)
    Title: CZE
    Language: Czech
    Service kind: Complete Main
    Default: No
    Forced: No

    Text #1
    ID: 3
    Format: PGS
    Muxing mode: zlib
    Codec ID: S_HDMV/PGS
    Codec ID/Info: Picture based subtitle format used on BDs/HD-DVDs
    Duration: 1 h 21 min
    Bit rate: 28.9 kb/s
    Count of elements: 1936
    Stream size: 16.8 MiB (0%)
    Title: ENG
    Language: English
    Default: No
    Forced: No

    Text #2
    ID: 4
    Format: UTF-8
    Codec ID: S_TEXT/UTF8
    Codec ID/Info: UTF-8 Plain Text
    Duration: 1 h 15 min
    Bit rate: 39 b/s
    Count of elements: 611
    Stream size: 21.8 KiB (0%)
    Title: CZE
    Language: Czech
    Default: Yes
    Forced: No







    Nezvratný osud 5


    Rok vydání: 2011
    Jazyk: CZ,EN
    Titulky: CZ,EN 
    ŽŽánr: Horor/Thriller
    Délka: 88 min.




    Obsah:
    Nezvratný osud 5 je pokračováním hororové série. Tentokrát skupinu nesleduje žádný démon ani šílenec, ale samotná smrt, či přesněji řečeno samotní filmaři. Skutečná smrt je samozřejmě daleko prozaičtější, když nechá spoustu lidí umřít ve spánku v posteli, ale to není příliš kinematografické. V tomto filmu, podobně jako v předchozích čtyřech dílech, napětí či provokování spočívá v tom, že člověk hádá, které předměty na určitém místě zlikvidují určitou postavu - špatné vedení, záludné nože, větrák u stropu nebo požár v kuchyni?
    Samovi (Nicholas D’Agosto) tentokrát připadne úloha zachránce, má zachránit život sedmi kolegů vč. svého nejlepšího kamaráda Petera (Miles Fisher) a přítelkyně Molly (Emma Bell). Hlasy těm, kteří přežijí propůjčí the Lucky Eight, ale z pohledu smrti měli všichni umřít na zmíněném mostě. Zarputilý posel smrti (Tony Todd), který v posledním díle zmizel, varuje Sama na pohřbu slovy: „Smrti se nelíbí, když ji chce někdo napálit.“




    Mediainfo:


    Format: Matroska
    Format version: Version 4
    File size: 12.3 GiB
    Duration: 1 h 31 min
    Overall bit rate mode: Variable
    Overall bit rate: 19.2 Mb/s
    Movie name: Final.Destination.5.2011.3D.1080p.BluRay. Half-SBS.DTS.x264.CZ-D4rR
    Encoded date: UTC 2019-01-27 08:42:36
    Writing application: mkvmerge v30.1.0 ('Forever And More' 64-bit
    Writing library: libebml v1.3.6 + libmatroska v1.4.9

    Video
    ID: 1
    Format: AVC
    Format/Info: Advanced Video Codec
    Format profile: High@L4.1
    Format settings: CABAC / 4 Ref Frames
    Format settings, CABAC: Yes
    Format settings, RefFrames: 4 frames
    Codec ID: V_MPEG4/ISO/AVC
    Duration: 1 h 31 min
    Bit rate: 15.0 Mb/s
    Width: 1 920 pixels
    Height: 798 pixels
    Display aspect ratio: 2.40:1
    Frame rate mode: Constant
    Frame rate: 23.976 (24000/1001) FPS
    Color space: YUV
    Chroma subsampling: 4:2:0
    Bit depth: 8 bits
    Scan type: Progressive
    Bits/(Pixel*Frame): 0.408
    Stream size: 9.55 GiB (77%)
    Writing library: x264 core 142 r2479 dd79a61
    Encoding settings: cabac=1 / ref=3 / deblock=1:0:0 / analyse=0x3:0x113 / me=hex / subme=7 / psy=1 / psy_rd=1.00:0.00 / mixed_ref=1 / me_range=16 / chroma_me=1 / trellis=1 / 8x8dct=1 / cqm=0 / deadzone=21,11 / fast_pskip=1 / chroma_qp_offset=-2 / threads=18 / lookahead_threads=3 / sliced_threads=0 / nr=0 / decimate=1 / interlaced=0 / bluray_compat=0 / constrained_intra=0 / bframes=3 / b_pyramid=2 / b_adapt=1 / b_bias=0 / direct=1 / weightb=1 / open_gop=0 / weightp=2 / keyint=240 / keyint_min=24 / scenecut=40 / intra_refresh=0 / rc_lookahead=40 / rc=abr / mbtree=1 / bitrate=15000 / ratetol=1.0 / qcomp=0.60 / qpmin=0 / qpmax=69 / qpstep=4 / vbv_maxrate=62500 / vbv_bufsize=78125 / nal_hrd=none / filler=0 / ip_ratio=1.40 / aq=1:1.00
    Default: Yes
    Forced: No
    Color range: Limited
    Color primaries: BT.709
    Transfer characteristics: BT.709
    Matrix coefficients: BT.709

    Audio #1
    ID: 2
    Format: DTS XLL
    Format/Info: Digital Theater Systems
    Commercial name: DTS-HD Master Audio
    Codec ID: A_DTS
    Duration: 1 h 31 min
    Bit rate mode: Variable
    Bit rate: 3 682 kb/s
    Channel(s): 6 channels
    Channel layout: C L R Ls Rs LFE
    Sampling rate: 48.0 kHz
    Frame rate: 93.750 FPS (512 SPF)
    Bit depth: 24 bits
    Compression mode: Lossless
    Stream size: 2.36 GiB (19%)
    Title: ENG
    Language: English
    Default: Yes
    Forced: No

    Audio #2
    ID: 5
    Format: AC-3
    Format/Info: Audio Coding 3
    Commercial name: Dolby Digital
    Codec ID: A_AC3
    Duration: 1 h 31 min
    Bit rate mode: Constant
    Bit rate: 640 kb/s
    Channel(s): 6 channels
    Channel layout: L R C LFE Ls Rs
    Sampling rate: 48.0 kHz
    Frame rate: 31.250 FPS (1536 SPF)
    Bit depth: 16 bits
    Compression mode: Lossy
    Delay relative to video: -83 ms
    Stream size: 420 MiB (3%)
    Title: CZE
    Language: Czech
    Service kind: Complete Main
    Default: No
    Forced: No

    Text #1
    ID: 3
    Format: PGS
    Muxing mode: zlib
    Codec ID: S_HDMV/PGS
    Codec ID/Info: Picture based subtitle format used on BDs/HD-DVDs
    Duration: 1 h 27 min
    Bit rate: 29.6 kb/s
    Count of elements: 2278
    Stream size: 18.7 MiB (0%)
    Title: ENG
    Language: English
    Default: No
    Forced: No

    Text #2
    ID: 4
    Format: UTF-8
    Codec ID: S_TEXT/UTF8
    Codec ID/Info: UTF-8 Plain Text
    Duration: 1 h 27 min
    Bit rate: 44 b/s
    Count of elements: 837
    Stream size: 28.5 KiB (0%)
    Title: CZE
    Language: Czech
    Default: Yes
    Forced: No








    ONLINE

    1



    Upozornenie:
    Ziadny zo zobrazených súborov sa nenachádza na tomto serveri. Server slúzi len k síreniu vlastnorucne vytvorených aplikácií, videí, hudby ai. Autori stránok nenesú ziadnu zodpovednost za zverejnené odkazy, komentáre a obsah súborov. Vsetky komentáre, odkazy, súbory ktoré by svojou povahou mohli byt v rozpore zo zákonmi sem vkladáte na vlastnú zodpovednost. Autori stránok si vyhradzujú právo cenzúry odkazov, komentárov príp. súborov, ktoré by svojou povahou mohli byt v rozpore zo zákonmi a dobrými mravmi. Dodrzujte pravidlá!


    No comments...


    Back

    Na serveru se nenalézají zádne soubory. Za odkazy jsou výhradně zodpovědní uzivatelé a návstěvníci tohoto trackeru. Administrátor není zodpovědný za pridaný obsah ani za skody zpusobené uzivateli. Rozsirovat stránku nebo její obsah bez souhlasu ownera je zakázano. Nesmíte pouzívat tuto webovou stránku pro distribuovaní nebo download zádného materiálu pokud nemáte povolení od príslusného vlastníka práv. Uzivatelé jsou zodpovědní za dodrzování těchto pravidel a podmínek. Owner má právo kdykoliv změnit pravidla tohoto trackeru.

    [ Script trval: 0.058 sec. ] - [ GZIP: enabled ]
    BtiTracker (1.4.8) by Btiteam
    Je zhruba 14:33

    TOPlist