Tvoj účet nieje VIP.
Preto sú tvoje funkcie a možnosti značne obmedzené.
Pre aktiváciu VIP klikni sem.

Nula od Nuly pojde / Big Nothing (2006)(CZ) = CSFD 72% | SkTorrent.eu

Cz-SkTorrent open Tracker, na volné zdielanie súborov. Pridajte sa k nasej komunite a získajte pristup k tisícom torrentov.

  • vysoká rýchlost
  • úplne zdarma
  • prevazne Slovenska a Ceska scena
  • ste tu s nami uz 5 rokov - Dakujeme
  • Vitaj Guest (Login) Ako stahovat
    torrenty?
    Torrenty:
    v1 textová
    v2 obrázková
    v3 online filmy
    Ako sa stat
    Uploaderom
    Online
    Filmy
    Forum
    Pravidlá
    BitTorrent
    klient
    pruzinky
    Meno: Heslo:
    Zaregistrovat
    Po zaregistrovaní mozte volne stahovat
    Zabudol som heslo

    Torrent's details
    Nula od Nuly pojde / Big Nothing (2006)(CZ) = CSFD 72% Názov:Nula od Nuly pojde / Big Nothing (2006)(CZ) = CSFD 72% Hodnocení:N/A Stiahnut
    Pozriet Online
    Kategória:Filmy CZ/SK dabing Velikost:1.3 GB BitTorrent klient
    Pridaný: Súbory:
    Skontrolován:2014-02-20 Peerov:0 (Seed: 0, Leech: 0)
    Zaner:Komedie,Krimi,Thriller Uploader:Uvidis, az ked budes
    VIP
    Kúp nám Pivo 1,10€

    Kúp nám Pivo
    Podporte nas na Facebooku !
    Pridaj do zalozky
    Pridaj do zalozky






    Jazyk: 5.1 Cz
    Titulky: Nejsou
    Odkaz na CSFD: http://www.csfd.cz/film/224953-nula-od-nuly-pojde/
    Rok vydání: 2006
    Délka: 86 min



    Žánr: Komedie / Thriller / Krimi
    Media infoGeneral
    Complete name: Cocuments and SettingsMarcelDokumentyDownloadsNula-od-Nuly-pojde.avi
    Format: AVI
    Format/Info: Audio Video Interleave
    File size: 1.33 GiB
    Duration: 1h 21mn
    Overall bit rate: 2 320 Kbps
    Writing application: VirtualDubMod 1.5.4.1 (build 2178/release)
    Writing library: VirtualDubMod build 2178/release

    Video
    ID: 0
    Format: MPEG-4 Visual
    Format profile: Advanced Simple@L5
    Format settings, BVOP: No
    Format settings, QPel: No
    Format settings, GMC: No warppoints
    Format settings, Matrix: Custom
    Codec ID: XVID
    Codec ID/Hint: XviD
    Duration: 1h 21mn
    Bit rate: 2 121 Kbps
    Width: 720 pixels
    Height: 416 pixels
    Display aspect ratio: 1.731
    Frame rate: 25.000 fps
    Color space: YUV
    Chroma subsampling: 4:2:0
    Bit depth: 8 bits
    Scan type: Progressive
    Compression mode: Lossy
    Bits/(Pixel*Frame): 0.283
    Stream size: 1.21 GiB (91%)
    Writing library: XviD 64

    Audio
    ID: 1
    Format: AC-3
    Format/Info: Audio Coding 3
    Mode extension: CM (complete main)
    Format settings, Endianness: Big
    Codec ID: 2000
    Duration: 1h 21mn
    Bit rate mode: Constant
    Bit rate: 192 Kbps
    Channel(s): 2 channels
    Channel positions: Front: L R
    Sampling rate: 48.0 KHz
    Bit depth: 16 bits
    Compression mode: Lossy
    Stream size: 113 MiB (8%)
    Alignment: Split accross interleaves
    Interleave, duration: 96 ms (2.40 video frames)
    Interleave, preload duration: 96 ms
    Language: Czech


    Screen:



    Charlie (David Schwimmer) napsal knihu, ale nikdo mu ji nechce vydat. Kvůli zajištění své rodiny musí přijmout podřadnou práci, z níž je však následně vyhozen kvůli špatné radě svého kolegy Guse (Simon Pegg). Oba rychle potřebují peníze, proto se rozhodnou zrealizovat Gusův plán a požadují od místního reverenda sto tisíc dolarů, jinak se veřejnost dozví o jeho internetových „choutkách“. Že plán nevyjde přesně podle plánu a po okolí města se začne povalovat hromada mrtvol, snad nemá cenu říkat.







    + Pridaj vlastnu verziu tohto torrentu +


    Upozornenie:
    Ziadny zo zobrazených súborov sa nenachádza na tomto serveri. Server slúzi len k síreniu vlastnorucne vytvorených aplikácií, videí, hudby ai. Autori stránok nenesú ziadnu zodpovednost za zverejnené odkazy, komentáre a obsah súborov. Vsetky komentáre, odkazy, súbory ktoré by svojou povahou mohli byt v rozpore zo zákonmi sem vkladáte na vlastnú zodpovednost. Autori stránok si vyhradzujú právo cenzúry odkazov, komentárov príp. súborov, ktoré by svojou povahou mohli byt v rozpore zo zákonmi a dobrými mravmi. Dodrzujte pravidlá!


    No comments...


    Back

    Na serveru se nenalézají zádne soubory. Za odkazy jsou výhradně zodpovědní uzivatelé a návstěvníci tohoto trackeru. Administrátor není zodpovědný za pridaný obsah ani za skody zpusobené uzivateli. Rozsirovat stránku nebo její obsah bez souhlasu ownera je zakázano. Nesmíte pouzívat tuto webovou stránku pro distribuovaní nebo download zádného materiálu pokud nemáte povolení od príslusného vlastníka práv. Uzivatelé jsou zodpovědní za dodrzování těchto pravidel a podmínek. Owner má právo kdykoliv změnit pravidla tohoto trackeru.

    [ Script trval: 0.024 sec. ] - [ GZIP: enabled ]
    BtiTracker (1.4.8) by Btiteam
    Je zhruba 06:52

    TOPlist