Tvoj účet nieje VIP.
Preto sú tvoje funkcie a možnosti značne obmedzené.
Pre aktiváciu VIP klikni sem.

Odplata / Recoil (2011)(CZ) = CSFD 53% | SkTorrent.eu

Cz-SkTorrent open Tracker, na volné zdielanie súborov. Pridajte sa k nasej komunite a získajte pristup k tisícom torrentov.

  • vysoká rýchlost
  • úplne zdarma
  • prevazne Slovenska a Ceska scena
  • ste tu s nami uz 5 rokov - Dakujeme
  • Vitaj Guest (Login) Ako stahovat
    torrenty?
    Torrenty:
    v1 textová
    v2 obrázková
    v3 online filmy
    Ako sa stat
    Uploaderom
    Online
    Filmy
    Forum
    Pravidlá
    BitTorrent
    klient
    Meno: Heslo:
    Zaregistrovat
    Po zaregistrovaní mozte volne stahovat
    Zabudol som heslo

    Torrent's details
    Odplata / Recoil (2011)(CZ) = CSFD 53% Názov:Odplata / Recoil (2011)(CZ) = CSFD 53% Hodnocení: Stiahnut
    Pozriet Online
    Kategória:Filmy CZ/SK dabing Velikost:813.8 MB BitTorrent klient
    Pridaný: Súbory:
    Skontrolován:2014-02-16 Peerov:0 (Seed: 0, Leech: 0)
    Zaner:Akcni Uploader:Uvidis, az ked budes
    VIP
    Kúp nám Pivo 1,10€

    Kúp nám Pivo
    Podporte nas na Facebooku !
    Pridaj do zalozky
    Pridaj do zalozky





     




    Jazyk: Český
    Titulky: Ne
    Odkaz na CSFD: http://www.csfd.cz/film/297106-recoil/
    Rok vydání: 2011
    Délka: 89 min
    Žánr: Akční


    Format: AVI
    Format/Info: Audio Video Interleave
    File size: 814 MiB
    Duration: 1h 30mn
    Overall bit rate: 1 264 Kbps

    Video
    ID: 0
    Format: MPEG-4 Visual
    Format profile: Advanced Simple@L5
    Format settings, BVOP: 2
    Format settings, QPel: No
    Format settings, GMC: No warppoints
    Format settings, Matrix: Default (MPEG)
    Codec ID: XVID
    Codec ID/Hint: XviD
    Duration: 1h 30mn
    Bit rate: 934 Kbps
    Width: 640 pixels
    Height: 352 pixels
    Display aspect ratio: 16:9
    Frame rate: 25.000 fps
    Original frame rate: 23.976 fps
    Color space: YUV
    Chroma subsampling: 4:2:0
    Bit depth: 8 bits
    Scan type: Progressive
    Compression mode: Lossy
    Bits/(Pixel*Frame): 0.166
    Stream size: 602 MiB (74%)
    Writing library: XviD 72

    Audio
    ID: 1
    Format: MPEG Audio
    Format version: Version 1
    Format profile: Layer 3
    Mode: Joint stereo
    Codec ID: 55
    Codec ID/Hint: MP3
    Duration: 1h 30mn
    Bit rate mode: Constant
    Bit rate: 320 Kbps
    Channel(s): 2 channels
    Sampling rate: 48.0 KHz
    Compression mode: Lossy
    Stream size: 206 MiB (25%)
    Alignment: Aligned on interleaves
    Interleave, duration: 40 ms (1.00 video frame)
    Writing library: LAME3.98.2



    Ryan Varrett (Steve Austin) byl policistou, dobrým policistou s vyznamenáním, se kterým si osud ošklivě zahrál. Stal se svědkem popravy své manželky a dítěte, a nechybělo mnoho a mezi živými nebyl ani on sám. Z výpravy za pomstou svých nejbližších se stala obsese, kterou lze jen stěží potlačit. Když se dostává na stopu posledním vrahům, přijíždí do města Hope, jemuž nevládnou policejní složky, nýbrž Drayke (Danny Trejo) a jeho násilnický gang motorkářských překupníků, The Circle.
    Ten si s Raynem chystá brzy vyřídit účty za vraždu Drayekova bratra Rexe (Noel Gugliemi). Celou situaci začínají komplikovat federální složky, pomstychtivý syn zavražděného zkorumpovaného šerifa a Darcyin (Serinda Swan) únos, díky němuž se Rayen pouští proti celému gangu na jejich vlastní půdě.


     









    milanuska, Paja04filipek, pianpian,

    + Pridaj vlastnu verziu tohto torrentu +


    Upozornenie:
    Ziadny zo zobrazených súborov sa nenachádza na tomto serveri. Server slúzi len k síreniu vlastnorucne vytvorených aplikácií, videí, hudby ai. Autori stránok nenesú ziadnu zodpovednost za zverejnené odkazy, komentáre a obsah súborov. Vsetky komentáre, odkazy, súbory ktoré by svojou povahou mohli byt v rozpore zo zákonmi sem vkladáte na vlastnú zodpovednost. Autori stránok si vyhradzujú právo cenzúry odkazov, komentárov príp. súborov, ktoré by svojou povahou mohli byt v rozpore zo zákonmi a dobrými mravmi. Dodrzujte pravidlá!


    No comments...


    Back

    Na serveru se nenalézají zádne soubory. Za odkazy jsou výhradně zodpovědní uzivatelé a návstěvníci tohoto trackeru. Administrátor není zodpovědný za pridaný obsah ani za skody zpusobené uzivateli. Rozsirovat stránku nebo její obsah bez souhlasu ownera je zakázano. Nesmíte pouzívat tuto webovou stránku pro distribuovaní nebo download zádného materiálu pokud nemáte povolení od príslusného vlastníka práv. Uzivatelé jsou zodpovědní za dodrzování těchto pravidel a podmínek. Owner má právo kdykoliv změnit pravidla tohoto trackeru.

    [ Script trval: 0.019 sec. ] - [ GZIP: enabled ]
    Je zhruba 19:20
    sql

    TOPlist