Tvoj účet nieje VIP.
Preto sú tvoje funkcie a možnosti značne obmedzené.
Pre aktiváciu VIP klikni sem.

Ohen v oblacich / Fire in the Sky (1993)(Mastered)(Hevc)(1080p)(BluRay)(English-CZ) = CSFD 67% | SkTorrent.eu

Cz-SkTorrent open Tracker, na volné zdielanie súborov. Pridajte sa k nasej komunite a získajte pristup k tisícom torrentov.

  • vysoká rýchlost
  • úplne zdarma
  • prevazne Slovenska a Ceska scena
  • ste tu s nami uz 5 rokov - Dakujeme
  • Vitaj Guest (Login) Ako stahovat
    torrenty?
    Torrenty:
    v1 textová
    v2 obrázková
    v3 online filmy
    Ako sa stat
    Uploaderom
    Online
    Filmy
    Forum
    Pravidlá
    BitTorrent
    klient
    Meno: Heslo:
    Zaregistrovat
    Po zaregistrovaní mozte volne stahovat
    Zabudol som heslo

    Torrent's details
    Ohen v oblacich / Fire in the Sky (1993)(Mastered)(Hevc)(1080p)(BluRay)(English-CZ) = CSFD 67% Názov:Ohen v oblacich / Fire in the Sky (1993)(Mastered)(Hevc)(1080p)(BluRay)(English-CZ) = CSFD 67% Hodnocení:N/A Stiahnut
    Pozriet Online
    Kategória:Filmy CZ/SK dabing Velikost:1.6 GB BitTorrent klient
    Pridaný: Súbory:
    Skontrolován:2022-04-27 Peerov:7 (Seed: 7, Leech: 0)
    Zaner:Drama,Mysteriozni,Sci-Fi Uploader:Uvidis, az ked budes
    VIP
    Kúp nám Pivo 1,10€

    Kúp nám Pivo
    Podporte nas na Facebooku !
    Pridaj do zalozky
    Pridaj do zalozky






    [center]





    Movie Name: Fire in the Sky (1993)(Mastered)
    IMDb Rating: 6.5/10

    Quality: 1080p (BluRay)
    Language: English (AAC 5.1) Czech (AAC 2.0)
    Subtitles: English/Czech
    Director: Robert Lieberman
    Writers: Travis Walton (book "The Walton Experience") Tracy Tormé (screenplay)
    Genres: Biography | Drama | Fantasy |


    An Arizona logger mysteriously disappears for five days in an alleged encounter with a flying saucer in 1975. His co-workers endure ridicule and contempt as they are wrongly accused of murder.
    ***
    5. listopad 1975. Parta lesních dělníků přichází v Arizoně oznámit policii, že pohřešují kamaráda Travise Waltona. Místní šerif Blake Davis povolá k případu šerifa Franka Walterse, nejlepšího vyšetřovatele v kraji. Předák Mike mu vypráví, jak se vše seběhlo: po skončení práce, už za tmy, viděli před sebou záři, a když přijeli blíž, uviděli podivné vznášející se těleso. Všichni byli zděšeni, jen Travis vystoupil z auta a šel si těleso prohlédnout zblízka. Tam upadl po zásahu neviditelné síly na zem, ostatní zpanikařili a ujeli. Walters je přesvědčen, že někdo z party Travise zabil a ostatní ho kryjí. Všichni podstoupí test na detektoru lži, ale zdá se, že si nikdo z nich příběh nevymyslel. Druhý test ovšem všichni odmítnou. Po pěti dnech se Travis telefonicky ozve Waltersovi. Ten pro něj okamžitě jede a najde ho zcela vyděšeného. Odveze ho do nemocnice. Po propuštění z ní si Travis začíná pomalu vybavovat vše, co v uplynulých dnech prožil...






    [/center]

    Format                                   : Matroska
    Format version                           : Version 4
    File size                                : 1.62 GiB
    Duration                                 : 1 h 49 min
    Overall bit rate                         : 2 124 kb/s
    Encoded date                             : UTC 2021-12-21 18:41:56
    Writing application                      : mkvmerge v53.0.0 ('Fool's Gold') 64-bit
    Writing library                          : libebml v1.4.1 + libmatroska v1.6.2
    Cover                                    : Yes
    Attachments                              : cover.jpg

    Video
    ID                                       : 1
    Format                                   : HEVC
    Format/Info                              : High Efficiency Video Coding
    Format profile                           : Main 10@L4@Main
    Codec ID                                 : V_MPEGH/ISO/HEVC
    Duration                                 : 1 h 49 min
    Bit rate                                 : 1 801 kb/s
    Width                                    : 1 920 pixels
    Height                                   : 816 pixels
    Display aspect ratio                     : 2.35:1
    Frame rate mode                          : Constant
    Frame rate                               : 23.976 (24000/1001) FPS
    Color space                              : YUV
    Chroma subsampling                       : 4:2:0
    Bit depth                                : 10 bits
    Bits/(Pixel*Frame)                       : 0.048
    Stream size                              : 1.38 GiB (85%)
    Writing library                          : x265 1.5+88-0e89af0781ee:[Windows][GCC 4.8.2][64 bit] 16bpp
    Encoding settings                        : wpp / ctu=64 / min-cu-size=8 / max-tu-size=32 / tu-intra-depth=1 / tu-inter-depth=1 / me=2 / subme=3 / merange=56 / no-rect / no-amp / max-merge=3 / temporal-mvp / no-early-skip / rdpenalty=0 / no-tskip / no-tskip-fast / strong-intra-smoothing / no-lossless / no-cu-lossless / no-constrained-intra / no-fast-intra / open-gop / no-temporal-layers / interlace=0 / keyint=250 / min-keyint=23 / scenecut=40 / rc-lookahead=20 / bframes=4 / bframe-bias=0 / b-adapt=2 / ref=3 / weightp / no-weightb / aq-mode=1 / aq-strength=1.00 / cbqpoffs=0 / crqpoffs=0 / rd=3 / psy-rd=0.60 / psy-rdoq=0.00 / signhide / lft / no-sao / no-sao-non-deblock / b-pyramid / cutree / rc=2 / pass / bitrate=1800 / qcomp=0.60 / qpmin=0 / qpmax=51 / qpstep=4 / cplxblur=20.0 / qblur=0.5 / ipratio=1.40 / pbratio=1.30
    Default                                  : Yes
    Forced                                   : No

    Audio #1
    ID                                       : 2
    Format                                   : AAC LC SBR
    Format/Info                              : Advanced Audio Codec Low Complexity with Spectral Band Replication
    Commercial name                          : HE-AAC
    Format settings                          : Explicit
    Codec ID                                 : A_AAC-2
    Duration                                 : 1 h 49 min
    Bit rate                                 : 225 kb/s
    Channel(s)                               : 6 channels
    Channel layout                           : C L R Ls Rs LFE
    Sampling rate                            : 48.0 kHz
    Frame rate                               : 23.438 FPS (2048 SPF)
    Compression mode                         : Lossy
    Delay relative to video                  : 31 ms
    Stream size                              : 176 MiB (11%)
    Language                                 : English
    Default                                  : Yes
    Forced                                   : No

    Audio #2
    ID                                       : 3
    Format                                   : AAC LC SBR
    Format/Info                              : Advanced Audio Codec Low Complexity with Spectral Band Replication
    Commercial name                          : HE-AAC
    Format settings                          : Explicit
    Codec ID                                 : A_AAC-2
    Duration                                 : 1 h 49 min
    Bit rate                                 : 96.0 kb/s
    Channel(s)                               : 2 channels
    Channel layout                           : L R
    Sampling rate                            : 48.0 kHz
    Frame rate                               : 23.438 FPS (2048 SPF)
    Compression mode                         : Lossy
    Delay relative to video                  : 31 ms
    Stream size                              : 74.0 MiB (4%)
    Language                                 : Czech
    Default                                  : No
    Forced                                   : No

    Text #1
    ID                                       : 4
    Format                                   : UTF-8
    Codec ID                                 : S_TEXT/UTF8
    Codec ID/Info                            : UTF-8 Plain Text
    Duration                                 : 1 h 45 min
    Bit rate                                 : 43 b/s
    Count of elements                        : 1149
    Stream size                              : 33.5 KiB (0%)
    Language                                 : Czech
    Default                                  : Yes
    Forced                                   : No

    Text #2
    ID                                       : 5
    Format                                   : UTF-8
    Codec ID                                 : S_TEXT/UTF8
    Codec ID/Info                            : UTF-8 Plain Text
    Duration                                 : 1 h 40 min
    Bit rate                                 : 52 b/s
    Count of elements                        : 1130
    Stream size                              : 38.9 KiB (0%)
    Language                                 : English
    Default                                  : No
    Forced                                   : No











    pohee, tetrov_cierny, tibotibo, Merlin88, flying, betynka, sumakbur, davidek123,

    + Pridaj vlastnu verziu tohto torrentu +


    Upozornenie:
    Ziadny zo zobrazených súborov sa nenachádza na tomto serveri. Server slúzi len k síreniu vlastnorucne vytvorených aplikácií, videí, hudby ai. Autori stránok nenesú ziadnu zodpovednost za zverejnené odkazy, komentáre a obsah súborov. Vsetky komentáre, odkazy, súbory ktoré by svojou povahou mohli byt v rozpore zo zákonmi sem vkladáte na vlastnú zodpovednost. Autori stránok si vyhradzujú právo cenzúry odkazov, komentárov príp. súborov, ktoré by svojou povahou mohli byt v rozpore zo zákonmi a dobrými mravmi. Dodrzujte pravidlá!


    No comments...


    Back

    Na serveru se nenalézají zádne soubory. Za odkazy jsou výhradně zodpovědní uzivatelé a návstěvníci tohoto trackeru. Administrátor není zodpovědný za pridaný obsah ani za skody zpusobené uzivateli. Rozsirovat stránku nebo její obsah bez souhlasu ownera je zakázano. Nesmíte pouzívat tuto webovou stránku pro distribuovaní nebo download zádného materiálu pokud nemáte povolení od príslusného vlastníka práv. Uzivatelé jsou zodpovědní za dodrzování těchto pravidel a podmínek. Owner má právo kdykoliv změnit pravidla tohoto trackeru.

    [ Script trval: 0.026 sec. ] - [ GZIP: enabled ]
    Je zhruba 03:28
    sql

    TOPlist