Tvoj účet nieje VIP.
Preto sú tvoje funkcie a možnosti značne obmedzené.
Pre aktiváciu VIP klikni sem.

Okolo futbola/Kicking Off (RUS-SK TIT) 2013 = CSFD 76% | SkTorrent.eu

Cz-SkTorrent open Tracker, na volné zdieľanie súborov. Pridajte sa k našej komunite a získajte prístup k tisícom torrentov.

  • vysoká rýchlosť
  • úplne zdarma
  • prevažne Slovenská a Česká scéna
  • ste tu s nami už 10 rokov - Ďakujeme
  • Vitaj Guest (Login) Ako stahovat
    torrenty?
    Torrenty:
    v1 textová
    v2 obrázková
    Ako sa stat
    Uploaderom
    Online
    Filmy
    Forum
    Pravidlá
    SkTSocial
    BitTorrent
    klient
    Meno: Heslo:
    Zaregistrovat
    Po zaregistrovaní mozte volne stahovat
    Zabudol som heslo

    Okolo futbola/Kicking Off (RUS-SK TIT) 2013  = CSFD 76% Názov:Okolo futbola/Kicking Off (RUS-SK TIT) 2013 = CSFD 76% Hodnocení:N/A Stiahnut
    Pozriet Online
    Kategória:Filmy s titulkama - Velikost:1.1 GB BitTorrent klient
    Pridaný: Súbory:
    Skontrolován:2018-08-13 Peerov:1 (Seed: 0, Leech: 1)
    Zaner:Drama Uploader:Uvidis, az ked budes
    VIP
    Kúp nám Pivo 1,10€

    Kúp nám Pivo

    Pridaj do zalozky
    Pridaj do zalozky







    Jazyk:RU
    Delka:100min.
    Rok vydani:Rusko 2013
    Video: XVID
    Zvuk: MP3
    Titulky: Sk
    Zanr: Drama



    https://www.csfd.cz/film/342207-okolo-futbola/prehled/





    Film o uzavřené části ruských fotbalových fanoušků - hooligans Ti, kteří jsou v reálném životě hudebníci, bankéři, studenti, nebo automechanici, všichni tvoří jednu firmu. Stát se součástí firmy je těžké, ale je to na celý život. A není cesty zpět.


    Format: AVI
    Format/Info: Audio Video Interleave
    Format profile: OpenDML
    File size: 1.09 GiB
    Duration: 1h 36mn
    Overall bit rate: 1 616 Kbps
    Writing application: MEncoder SVN-r33883(20110719-gcc4.5.2)
    Writing library: MPlayer

    Video
    ID: 0
    Format: MPEG-4 Visual
    Format profile: AdvancedSimple@L5
    Format settings, BVOP: Yes
    Format settings, QPel: No
    Format settings, GMC: No warppoints
    Format settings, Matrix: Default (H.263)
    Codec ID: XVID
    Codec ID/Hint: XviD
    Duration: 1h 28mn
    Bit rate: 1 603 Kbps
    Width: 640 pixels
    Height: 360 pixels
    Display aspect ratio: 16:9
    Frame rate: 23.956 fps
    Resolution: 24 bits
    Colorimetry: 4:2:0
    Scan type: Progressive
    Bits/(Pixel*Frame) : 0.290
    Stream size: 1 020 MiB (91%)
    Writing library: XviD 1.2.1 (UTC 2008-12-04)

    Audio
    ID: 1
    Format: MPEG Audio
    Format version: Version 1
    Format profile: Layer 3
    Codec ID: 55
    Codec ID/Hint: MP3
    Duration: 1h 36mn
    Bit rate mode: Constant
    Bit rate: 128 Kbps
    Channel(s): 2 channels
    Sampling rate: 44.1 KHz
    Resolution: 16 bits
    Video delay: 42ms
    Stream size: 88.6 MiB (8%)
    Alignment: Aligned on interleaves
    Interleave, duration: 26 ms (0.63 video frame)
    Interleave, preload duration: 522 ms
    Writing library: LAME3.98.4








    Ballu811,

    + Pridaj vlastnu verziu tohto torrentu +


    Upozornenie:
    Ziadny zo zobrazených súborov sa nenachádza na tomto serveri. Server slúzi len k síreniu vlastnorucne vytvorených aplikácií, videí, hudby ai. Autori stránok nenesú ziadnu zodpovednost za zverejnené odkazy, komentáre a obsah súborov. Vsetky komentáre, odkazy, súbory ktoré by svojou povahou mohli byt v rozpore zo zákonmi sem vkladáte na vlastnú zodpovednost. Autori stránok si vyhradzujú právo cenzúry odkazov, komentárov príp. súborov, ktoré by svojou povahou mohli byt v rozpore zo zákonmi a dobrými mravmi. Dodrzujte pravidlá!


    No comments...


    Back

    Na serveru se nenalézají zádne soubory. Za odkazy jsou výhradně zodpovědní uzivatelé a návstěvníci tohoto trackeru. Administrátor není zodpovědný za pridaný obsah ani za skody zpusobené uzivateli. Nesmíte pouzívat tuto webovou stránku pro distribuovaní nebo download zádného materiálu pokud nemáte povolení od príslusného vlastníka práv. Uzivatelé jsou zodpovědní za dodrzování těchto pravidel a podmínek. Owner má právo kdykoliv změnit pravidla tohoto trackeru.

    [ Script trval: 0.014 sec. ] - [ GZIP: enabled ]
    Je zhruba 23:55
    sql

    TOPlist