Tvoj účet nieje VIP.
Preto sú tvoje funkcie a možnosti značne obmedzené.
Pre aktiváciu VIP klikni sem.

Oliver Stone: Nezname dejiny Spojenych statu / The Untold History of the United States E01 (2012)(CZ)[TvRip] = CSFD 85% | SkTorrent.eu

Cz-SkTorrent open Tracker, na volné zdielanie súborov. Pridajte sa k nasej komunite a získajte pristup k tisícom torrentov.

  • vysoká rýchlost
  • úplne zdarma
  • prevazne Slovenska a Ceska scena
  • ste tu s nami uz 5 rokov - Dakujeme
  • Vitaj Guest (Login) Ako stahovat
    torrenty?
    Torrenty:
    v1 textová
    v2 obrázková
    v3 online filmy
    Ako sa stat
    Uploaderom
    Online
    Filmy
    Forum
    Pravidlá
    BitTorrent
    klient
    pruzinky
    Meno: Heslo:
    Zaregistrovat
    Po zaregistrovaní mozte volne stahovat
    Zabudol som heslo

    Torrent's details
    Oliver Stone: Nezname dejiny Spojenych statu / The Untold History of the United States E01 (2012)(CZ)[TvRip] = CSFD 85% Názov:Oliver Stone: Nezname dejiny Spojenych statu / The Untold History of the United States E01 (2012)(CZ)[TvRip] = CSFD 85% Hodnocení: Stiahnut
    Pozriet Online
    Kategória:Dokument Velikost:891.8 MB BitTorrent klient
    Pridaný: Súbory:
    Skontrolován:2014-03-06 Peerov:0 (Seed: 0, Leech: 0)
    Zaner:Dokumentarny,Historicky Uploader:Uvidis, az ked budes
    VIP
    Kúp nám Pivo 1,10€

    Kúp nám Pivo
    Podporte nas na Facebooku !
    Pridaj do zalozky
    Pridaj do zalozky





    Jazyk: CZ
    Titulky: -
    Délka: 58mn 21s
    Odkaz na CSFD:  http://www.csfd.cz/film/329483-oliver-stone-nezname-dejiny-spojenych-statu/
    Rok vydání: 2012
    Žánr: Dokumentární / Historický




    Popis děje:
    Jako režisér a producent zůstal Oliver Stone věrný své pověsti kontroverzního tvůrce i ve střihovém dokumentu, který se v deseti hodinových dílech věnuje některým aspektům moderní historie USA. Spolu s britským scenáristou Mattem Grahamem a americkým historikem Peterem J. Kuznickem nabízí publiku kritický pohled na USA jako velmoc sledující napříč nejrůznějšími dějinnými situacemi – od 2. světové války po současnost – vlastní dobyvačné a ziskuchtivé cíle.

    Screenshot:



    Mediainfo:
    General
    Complete name: D:installfilmyOliver Stone - Neznámé dějiny Spojených států 1.mp4
    Format: MPEG-4
    Format profile: Base Media / Version 2
    Codec ID: mp42
    File size: 892 MiB
    Duration: 58mn 21s
    Overall bit rate mode: Variable
    Overall bit rate: 2 136 Kbps
    Writing application: TMPGEnc Video Mastering Works 5 Version. 5.0.6.38

    Video
    ID: 2
    Format: AVC
    Format/Info: Advanced Video Codec
    Format profile: High@L3.0
    Format settings, CABAC: Yes
    Format settings, ReFrames: 2 frames
    Codec ID: avc1
    Codec ID/Info: Advanced Video Coding
    Duration: 58mn 21s
    Bit rate mode: Variable
    Bit rate: 2 005 Kbps
    Maximum bit rate: 8 000 Kbps
    Width: 720 pixels
    Height: 576 pixels
    Display aspect ratio: 16:9
    Frame rate mode: Constant
    Frame rate: 25.000 fps
    Standard: PAL
    Color space: YUV
    Chroma subsampling: 4:2:0
    Bit depth: 8 bits
    Scan type: Interlaced
    Bits/(Pixel*Frame): 0.193
    Stream size: 837 MiB (94%)

    Audio
    ID: 1
    Format: AAC
    Format/Info: Advanced Audio Codec
    Format profile: LC
    Codec ID: 40
    Duration: 58mn 21s
    Bit rate mode: Variable
    Bit rate: 128 Kbps
    Maximum bit rate: 576 Kbps
    Channel count: 2 channels
    Channel positions: Front: L R
    Sampling rate: 48.0 KHz
    Compression mode: Lossy
    Delay relative to video: 40ms
    Stream size: 53.5 MiB (6%)











    + Pridaj vlastnu verziu tohto torrentu +


    Upozornenie:
    Ziadny zo zobrazených súborov sa nenachádza na tomto serveri. Server slúzi len k síreniu vlastnorucne vytvorených aplikácií, videí, hudby ai. Autori stránok nenesú ziadnu zodpovednost za zverejnené odkazy, komentáre a obsah súborov. Vsetky komentáre, odkazy, súbory ktoré by svojou povahou mohli byt v rozpore zo zákonmi sem vkladáte na vlastnú zodpovednost. Autori stránok si vyhradzujú právo cenzúry odkazov, komentárov príp. súborov, ktoré by svojou povahou mohli byt v rozpore zo zákonmi a dobrými mravmi. Dodrzujte pravidlá!





    0
    TorOli
    Ratio 1



    29/07/2014 16.01.55
    ...tak z toho jsem vedle. Podle textu 10 dilu, podle obrazku 12 dilu. Kdo se ma v tom vyznat. Kazdopadne, dejte je tam nekdo vsechny, at ten dokument ma smysl. Diky

    0
    TorOli
    Ratio 1



    29/07/2014 15.55.19
    Nazdarek lidicky, nemate nahodou celou filmoteku 10-ti dilu od Olivera Stonea: Untold history of the U.S.??? Podle screenshotu by jich tam, na 4 DVD, melo byt 10 dilu. Nekouskujte to a hodte to tam nekdo cele. To bych vam pak moc podekoval (i bez vyzvani).

    0
    lachix
    Ratio 79.39

    Clen

    28/03/2014 21.18.25
    Pozeram, ze niekto tu uploadol moj torrent, este aj komplet s popisom a screenshotmi ... aspon  mi mohol podakovat

    0
    mimu
    Ratio 12.57

    VIP

    06/03/2014 16.21.24
    díky


    Back

    Na serveru se nenalézají zádne soubory. Za odkazy jsou výhradně zodpovědní uzivatelé a návstěvníci tohoto trackeru. Administrátor není zodpovědný za pridaný obsah ani za skody zpusobené uzivateli. Rozsirovat stránku nebo její obsah bez souhlasu ownera je zakázano. Nesmíte pouzívat tuto webovou stránku pro distribuovaní nebo download zádného materiálu pokud nemáte povolení od príslusného vlastníka práv. Uzivatelé jsou zodpovědní za dodrzování těchto pravidel a podmínek. Owner má právo kdykoliv změnit pravidla tohoto trackeru.

    [ Script trval: 0.024 sec. ] - [ GZIP: enabled ]
    BtiTracker (1.4.8) by Btiteam
    Je zhruba 22:42

    TOPlist