Tvoj účet nieje VIP.
Preto sú tvoje funkcie a možnosti značne obmedzené.
Pre aktiváciu VIP klikni sem.

Otec nevesty / Father of the Bride (CZ/SK/EN)(2022)(Web-DL)(1080p HEVC) | SkTorrent.eu

Cz-SkTorrent open Tracker, na volné zdielanie súborov. Pridajte sa k nasej komunite a získajte pristup k tisícom torrentov.

  • vysoká rýchlost
  • úplne zdarma
  • prevazne Slovenska a Ceska scena
  • ste tu s nami uz 5 rokov - Dakujeme
  • Vitaj Guest (Login) Ako stahovat
    torrenty?
    Torrenty:
    v1 textová
    v2 obrázková
    v3 online filmy
    Ako sa stat
    Uploaderom
    Online
    Filmy
    Forum
    Pravidlá
    BitTorrent
    klient
    Meno: Heslo:
    Zaregistrovat
    Po zaregistrovaní mozte volne stahovat
    Zabudol som heslo

    Torrent's details
    Otec nevesty / Father of the Bride (CZ/SK/EN)(2022)(Web-DL)(1080p HEVC) Názov:Otec nevesty / Father of the Bride (CZ/SK/EN)(2022)(Web-DL)(1080p HEVC) Hodnocení: Stiahnut
    Pozriet Online
    Kategória:HD Filmy Velikost:5.1 GB BitTorrent klient
    Pridaný: Súbory:
    Skontrolován:2022-06-16 Peerov:16 (Seed: 16, Leech: 0)
    Zaner:Drama,Fantasy,Komedie,Romanticky Uploader:Uvidis, az ked budes
    VIP
    Kúp nám Pivo 1,10€

    Kúp nám Pivo
    Podporte nas na Facebooku !
    Pridaj do zalozky
    Pridaj do zalozky











    Komedie / Drama / Fantasy / Romantický
    USA, 2022, 117 min


    Video: 1080p MKV HEVC
    Audio : CZ/SK/EN/ Dabing - AC-3 5.1- 384 kb/s (ENG E-AC3 - 5.1 - 768 kb/s
    Titulky : CZ/SK/EN

    Režie: Gary Alazraki
    Předloha: Edward Streeter (kniha)
    Scénář: Matt Lopez
    Kamera: Igor Jadue-Lillo
    Hudba: Terence Blanchard
    Hrají: Andy Garcia, Gloria Estefan, Adria Arjona, Isabela Merced, Laura Harring, Enrique Murciano, Diego Boneta, Chloe Fineman, Nancy De Mayo,
    Produkce: Dede Gardner, Jeremy Kleiner
    Střih: Jon Poll
    Zvuk: Mary H. Ellis, Mathew Waters
    Scénografie: Kim Jennings
    Masky: Tracy Wines
    Kostýmy: Caroline Eselin

    Náhled








    Otec se vyrovnává s nadcházející svatbou své dcery prizmatem mnoha vztahů ve velkém, rozvětveném kubánsko-americkém klanu.



    Formát                                   : Matroska
    Format version                           : Version 4
    Velikost souboru                         : 5,05 GiB
    Duration                                 : 1 h 57 min
    Celkový BitRate                          : 6 153 kb/s
    Název filmu                              : Father of the Bride
    Description                              : Billy and Ingrid are surprised when their eldest daughter Sofia announces a new fiancé, Adan, and plans for a quick wedding. The news keeps Billy and Ingrid from announcing that they’re planning to divorce...but they hold off for the benefit of the family. Billy’s initial opposition to the wedding cools, so long as his opinions carry the most weight. Soon, Adan’s headstrong father arrives with his own traditions and family pride in tow. With the fathers vying to control the festivities, it becomes a game of one-upmanship - cultures clash, generations take sides and competing traditions collide. All relationships are tested as the roller coaster ride of wedding planning races toward the altar.
    Encoded date                             : UTC 2022-06-16 09:09:50
    Použitý software                         : HandBrake 1.5.1 2022011000
    Enkódoval                                : Lavf58.76.100
    ErrorDetectionType                       : Per level 1

    Video
    ID                                       : 1
    Formát                                   : HEVC
    Formát/Info                              : High Efficiency Video Coding
    Format profile                           : Main@L4@Main
    Codec ID                                 : V_MPEGH/ISO/HEVC
    Duration                                 : 1 h 57 min
    Bit rate                                 : 4 494 kb/s
    Šířka                                    : 1 920pixely
    Výška                                    : 1 080pixely
    Poměr stran                              : 2,40:1
    Frame rate mode                          : Constant
    Frame rate                               : 23,976 (24000/1001) FPS
    Color space                              : YUV
    Chroma subsampling                       : 4:2:0
    Bit depth                                : 8 bits
    Bits/(Pixel*Frame)                       : 0.090
    Stream size                              : 3,69 GiB (73%)
    Default                                  : Ano
    Forced                                   : Ne
    Color range                              : Limited
    Color primaries                          : BT.709
    Transfer characteristics                 : BT.709
    Matrix coefficients                      : BT.709

    Audio #1
    ID                                       : 2
    Formát                                   : AC-3
    Formát/Info                              : Audio Coding 3
    Commercial name                          : Dolby Digital
    Codec ID                                 : A_AC3
    Duration                                 : 1 h 57 min
    Bit rate mode                            : Constant
    Bit rate                                 : 384 kb/s
    Kanál(y)                                 : 6 kanály
    Channel layout                           : L R C LFE Ls Rs
    Sampling rate                            : 48,0 kHz
    Frame rate                               : 31,250 FPS (1536 SPF)
    Compression mode                         : Lossy
    Stream size                              : 323 MiB (6%)
    Titul                                    : Czech
    Jazyk                                    : Czech
    Service kind                             : Complete Main
    Default                                  : Ano
    Forced                                   : Ne

    Audio #2
    ID                                       : 3
    Formát                                   : AC-3
    Formát/Info                              : Audio Coding 3
    Commercial name                          : Dolby Digital
    Codec ID                                 : A_AC3
    Duration                                 : 1 h 57 min
    Bit rate mode                            : Constant
    Bit rate                                 : 384 kb/s
    Kanál(y)                                 : 6 kanály
    Channel layout                           : L R C LFE Ls Rs
    Sampling rate                            : 48,0 kHz
    Frame rate                               : 31,250 FPS (1536 SPF)
    Compression mode                         : Lossy
    Stream size                              : 323 MiB (6%)
    Titul                                    : Slovak
    Jazyk                                    : Slovak
    Service kind                             : Complete Main
    Default                                  : Ne
    Forced                                   : Ne

    Audio #3
    ID                                       : 4
    Formát                                   : E-AC-3 JOC
    Formát/Info                              : Enhanced AC-3 with Joint Object Coding
    Commercial name                          : Dolby Digital Plus with Dolby Atmos
    Codec ID                                 : A_EAC3
    Duration                                 : 1 h 57 min
    Bit rate mode                            : Constant
    Bit rate                                 : 768 kb/s
    Kanál(y)                                 : 6 kanály
    Channel layout                           : L R C LFE Ls Rs
    Sampling rate                            : 48,0 kHz
    Frame rate                               : 31,250 FPS (1536 SPF)
    Compression mode                         : Lossy
    Stream size                              : 646 MiB (12%)
    Titul                                    : English
    Jazyk                                    : English
    Service kind                             : Complete Main
    Default                                  : Ne
    Forced                                   : Ne
    Complexity index                         : 16
    Number of dynamic objects                : 15
    Bed channel count                        : 1 kanál
    Bed channel configuration                : LFE

    Text #1
    ID                                       : 5
    Formát                                   : ASS
    Codec ID                                 : S_TEXT/ASS
    Codec ID/Info                            : Advanced Sub Station Alpha
    Duration                                 : 1 h 57 min
    Compression mode                         : Lossless
    Titul                                    : Czech
    Jazyk                                    : Czech
    Default                                  : Ne
    Forced                                   : Ne

    Text #2
    ID                                       : 6
    Formát                                   : ASS
    Codec ID                                 : S_TEXT/ASS
    Codec ID/Info                            : Advanced Sub Station Alpha
    Duration                                 : 1 h 57 min
    Compression mode                         : Lossless
    Titul                                    : Slovak
    Jazyk                                    : Slovak
    Default                                  : Ne
    Forced                                   : Ne

    Text #3
    ID                                       : 7
    Formát                                   : ASS
    Codec ID                                 : S_TEXT/ASS
    Codec ID/Info                            : Advanced Sub Station Alpha
    Duration                                 : 1 h 36 min
    Compression mode                         : Lossless
    Titul                                    : English
    Jazyk                                    : English
    Default                                  : Ne
    Forced                                   : Ne








    ONLINE

    CZ dabing






    SK dabing









    666, Steve_Rogers, polda712, semperfidelis, Kamiloprody, ulia, czkiwi,

    + Pridaj vlastnu verziu tohto torrentu +


    Upozornenie:
    Ziadny zo zobrazených súborov sa nenachádza na tomto serveri. Server slúzi len k síreniu vlastnorucne vytvorených aplikácií, videí, hudby ai. Autori stránok nenesú ziadnu zodpovednost za zverejnené odkazy, komentáre a obsah súborov. Vsetky komentáre, odkazy, súbory ktoré by svojou povahou mohli byt v rozpore zo zákonmi sem vkladáte na vlastnú zodpovednost. Autori stránok si vyhradzujú právo cenzúry odkazov, komentárov príp. súborov, ktoré by svojou povahou mohli byt v rozpore zo zákonmi a dobrými mravmi. Dodrzujte pravidlá!


    No comments...


    Back

    Na serveru se nenalézají zádne soubory. Za odkazy jsou výhradně zodpovědní uzivatelé a návstěvníci tohoto trackeru. Administrátor není zodpovědný za pridaný obsah ani za skody zpusobené uzivateli. Rozsirovat stránku nebo její obsah bez souhlasu ownera je zakázano. Nesmíte pouzívat tuto webovou stránku pro distribuovaní nebo download zádného materiálu pokud nemáte povolení od príslusného vlastníka práv. Uzivatelé jsou zodpovědní za dodrzování těchto pravidel a podmínek. Owner má právo kdykoliv změnit pravidla tohoto trackeru.

    [ Script trval: 0.030 sec. ] - [ GZIP: enabled ]
    Je zhruba 07:31
    memcache

    TOPlist