Tvoj účet nieje VIP.
Preto sú tvoje funkcie a možnosti značne obmedzené.
Pre aktiváciu VIP klikni sem.

Případ pro zvláštní skupinu CZ 1989-Tvrip = CSFD 53% | SkTorrent.eu

Cz-SkTorrent open Tracker, na volné zdieľanie súborov. Pridajte sa k našej komunite a získajte prístup k tisícom torrentov.

  • vysoká rýchlosť
  • úplne zdarma
  • prevažne Slovenská a Česká scéna
  • ste tu s nami už 10 rokov - Ďakujeme
  • Vitaj Guest (Login) Ako stahovat
    torrenty?
    Torrenty:
    v1 textová
    v2 obrázková
    Ako sa stat
    Uploaderom
    Online
    Filmy
    Forum
    Pravidlá
    SkTSocial
    BitTorrent
    klient
    Meno: Heslo:
    Zaregistrovat
    Po zaregistrovaní mozte volne stahovat
    Zabudol som heslo

    Případ pro zvláštní skupinu CZ 1989-Tvrip = CSFD 53% Názov:Případ pro zvláštní skupinu CZ 1989-Tvrip = CSFD 53% Hodnocení:N/A Stiahnut
    Pozriet Online
    Kategória:Seriál - Velikost:7.9 GB BitTorrent klient
    Pridaný: Súbory:
    Skontrolován:2024-07-06 Peerov:25 (Seed: 24, Leech: 1)
    Zaner:Komedie,Krimi Uploader:Uvidis, az ked budes
    VIP
    Kúp nám Pivo 1,10€

    Kúp nám Pivo

    Pridaj do zalozky
    Pridaj do zalozky




    Josef Somr, Jiří Schmitzer a Tereza Brodská jsou členy zvláštní skupiny, vyšetřující těžké zločiny. Jejich první případ vražd bez zjevného motivu je tvrdým oříškem..
    Hlavní
    Celý název a cesta                       : C:\Users\Tomáš\Downloads\Pripad pro zvlastni skupinu 1989\Případ+pro+zvláštní+skupinu+-+01+Noční+chodec.mp4
    Formát                                   : MPEG-4
    Format profile                           : Base Media
    Codec ID                                 : isom (isom/iso2/avc1/mp41)
    Velikost souboru                         : 1,37 GiB
    Duration                                 : 1 h 2 min
    Celkový BitRate                          : 3 131 kb/s
    Frame rate                               : 25,000 FPS
    Název filmu                              : Případ+pro+zvláštní+skupinu+-+01+Noční+chodec
    Performer                                : VideoProc Converter AI
    žánr                                     : Video
    Použitý software                         : Lavf60.3.100
    Komentář                                 : Případ+pro+zvláštní+skupinu+-+01+Noční+chodec

    Video
    ID                                       : 1
    Formát                                   : AVC
    Formát/Info                              : Advanced Video Codec
    Format profile                           : High@L4
    Format settings                          : CABAC / 4 Ref Frames
    Format settings, CABAC                   : Ano
    Format settings, Reference frames        : 4 frames
    Codec ID                                 : avc1
    Codec ID/Info                            : Advanced Video Coding
    Duration                                 : 1 h 2 min
    Bit rate                                 : 3 039 kb/s
    Maximum bit rate                         : 2 961 kb/s
    Šířka                                    : 1 920pixely
    Výška                                    : 1 080pixely
    Poměr stran                              : 16:9
    Frame rate mode                          : Constant
    Frame rate                               : 25,000 FPS
    Color space                              : YUV
    Chroma subsampling                       : 4:2:0
    Bit depth                                : 8 bits
    Scan type                                : Progressive
    Bits/(Pixel*Frame)                       : 0.059
    Stream size                              : 1,30 GiB (95%)
    Enkódoval                                : x264 core 160 r3000
    Nastavení enkoderu                       : cabac=1 / ref=4 / deblock=1:0:0 / analyse=0x3:0x113 / me=hex / subme=4 / psy=1 / psy_rd=1.00:0.00 / mixed_ref=0 / me_range=16 / chroma_me=1 / trellis=1 / 8x8dct=1 / cqm=0 / deadzone=21,11 / fast_pskip=1 / chroma_qp_offset=0 / threads=8 / lookahead_threads=2 / sliced_threads=0 / nr=0 / decimate=1 / interlaced=0 / bluray_compat=0 / constrained_intra=0 / bframes=3 / b_pyramid=2 / b_adapt=1 / b_bias=0 / direct=1 / weightb=1 / open_gop=0 / weightp=1 / keyint=250 / keyint_min=25 / scenecut=0 / intra_refresh=0 / rc_lookahead=20 / rc=abr / mbtree=1 / bitrate=3039 / ratetol=1.0 / qcomp=0.60 / qpmin=0 / qpmax=69 / qpstep=4 / vbv_maxrate=24999 / vbv_bufsize=4687 / nal_hrd=none / filler=0 / ip_ratio=1.40 / aq=1:1.00
    Codec configuration box                  : avcC

    Audio
    ID                                       : 2
    Formát                                   : AAC LC
    Formát/Info                              : Advanced Audio Codec Low Complexity
    Codec ID                                 : mp4a-40-2
    Duration                                 : 1 h 2 min
    Source duration                          : 1 h 2 min
    Bit rate mode                            : Constant
    Bit rate                                 : 160 kb/s
    Kanál(y)                                 : 2 kanály
    Channel layout                           : L R
    Sampling rate                            : 44,1 kHz
    Frame rate                               : 43,066 FPS (1024 SPF)
    Compression mode                         : Lossy
    Stream size                              : 72,0 MiB (5%)
    Source stream size                       : 72,0 MiB (5%)
    Jazyk                                    : Slovak
    Default                                  : Ano
    Alternate group                          : 1

    https://www.youtube.com/watch?v=4QJohFu3BZU

    https://www.csfd.cz/film/158483-pripad-pro-zvlastni-skupinu/prehled/

     








    Spartak, Jing, janaka, Devil72cz, Lakn, zac22, Trip77, paarek, sumakbur,

    + Pridaj vlastnu verziu tohto torrentu +


    Upozornenie:
    Ziadny zo zobrazených súborov sa nenachádza na tomto serveri. Server slúzi len k síreniu vlastnorucne vytvorených aplikácií, videí, hudby ai. Autori stránok nenesú ziadnu zodpovednost za zverejnené odkazy, komentáre a obsah súborov. Vsetky komentáre, odkazy, súbory ktoré by svojou povahou mohli byt v rozpore zo zákonmi sem vkladáte na vlastnú zodpovednost. Autori stránok si vyhradzujú právo cenzúry odkazov, komentárov príp. súborov, ktoré by svojou povahou mohli byt v rozpore zo zákonmi a dobrými mravmi. Dodrzujte pravidlá!


    No comments...


    Back

    Na serveru se nenalézají zádne soubory. Za odkazy jsou výhradně zodpovědní uzivatelé a návstěvníci tohoto trackeru. Administrátor není zodpovědný za pridaný obsah ani za skody zpusobené uzivateli. Nesmíte pouzívat tuto webovou stránku pro distribuovaní nebo download zádného materiálu pokud nemáte povolení od príslusného vlastníka práv. Uzivatelé jsou zodpovědní za dodrzování těchto pravidel a podmínek. Owner má právo kdykoliv změnit pravidla tohoto trackeru.

    [ Script trval: 0.064 sec. ] - [ GZIP: enabled ]
    Je zhruba 13:35
    sql

    TOPlist