Tvoj účet nieje VIP.
Preto sú tvoje funkcie a možnosti značne obmedzené.
Pre aktiváciu VIP klikni sem.

Pacient c. 14 / The Eavesdropper (2004)(HD)(720p)(x264)(EN-CZ) = CSFD 53% | SkTorrent.eu

Cz-SkTorrent open Tracker, na volné zdielanie súborov. Pridajte sa k nasej komunite a získajte pristup k tisícom torrentov.

  • vysoká rýchlost
  • úplne zdarma
  • prevazne Slovenska a Ceska scena
  • ste tu s nami uz 5 rokov - Dakujeme
  • Vitaj Guest (Login) Ako stahovat
    torrenty?
    Torrenty:
    v1 textová
    v2 obrázková
    v3 online filmy
    Ako sa stat
    Uploaderom
    Online
    Filmy
    Forum
    Pravidlá
    BitTorrent
    klient
    Meno: Heslo:
    Zaregistrovat
    Po zaregistrovaní mozte volne stahovat
    Zabudol som heslo

    Torrent's details
    Pacient c. 14 / The Eavesdropper (2004)(HD)(720p)(x264)(EN-CZ) = CSFD 53% Názov:Pacient c. 14 / The Eavesdropper (2004)(HD)(720p)(x264)(EN-CZ) = CSFD 53% Hodnocení:N/A Stiahnut
    Pozriet Online
    Kategória:Filmy CZ/SK dabing Velikost:1.5 GB BitTorrent klient
    Pridaný: Súbory:
    Skontrolován:2022-06-28 Peerov:99 (Seed: 99, Leech: 0)
    Zaner:Drama,Sci-Fi,Thriller Uploader:Uvidis, az ked budes
    VIP
    Kúp nám Pivo 1,10€

    Kúp nám Pivo
    Podporte nas na Facebooku !
    Pridaj do zalozky
    Pridaj do zalozky






    [center]






    Movie Name: The Eavesdropper (2004)
    IMDb Rating: 5.4/10

    Quality: 720p (Webrip/DVDrip)
    Language: English (AAC 2.0) Czech (AAC 2.0)
    Subtitles: -
    Director: Andrew Bakalar
    Writers: Andrew Bakalar
    Genres: Thiller | Drama | Sci-fi |


    A highly classified government experiment to restore hearing to the deaf leaves one frightened patient fighting for her life.
    ***
    Slyšet lidské myšlenky může být zajímavé. Ale také velmi nebezpečné.
    Mladá Liza Rainesová přišla o sluch při výstřelu ze zbraně vedle jejího ucha. Je však odhodlána udělat cokoli, aby se jí sluch vrátil. Proto se rozhodne účastnit se tajného programu vlády, který by ji měl vrátit sluch. Léčba sebou však nese značná rizika a Lisa je jedinou z patnácti lidí, u které se po léčbě neprojeví vedlejší účinky, po kterých končí pacienti v léčebně pro duševně choré. U Lisy se však projeví jeden zvláštní účinek – slyší i lidské myšlenky. S touto vlastností je rázem velmi cenná pro CIA, která zde vidí nedozírný potenciál. Stává se ale také terčem pro ty, které by jako agentka mohla ohrozit. Rozbíhá se velké špionážní drama, kde není radno věřit nikomu.






    [/center]

    Format                                   : Matroska
    Format version                           : Version 4
    File size                                : 1.50 GiB
    Duration                                 : 1 h 33 min
    Overall bit rate                         : 2 302 kb/s
    Movie name                               : The Eavesdropper  (2004)(HD)(720p)(x264)(EN-CZ) PHDTeam
    Encoded date                             : UTC 2022-06-12 18:38:53
    Writing application                      : mkvmerge v68.0.0 ('The Curtain') 64-bit
    Writing library                          : libebml v1.4.2 + libmatroska v1.6.4 / Lavf58.44.100

    Video
    ID                                       : 1
    Format                                   : AVC
    Format/Info                              : Advanced Video Codec
    Format profile                           : Main@L4.2
    Format settings                          : CABAC / 1 Ref Frames
    Format settings, CABAC                   : Yes
    Format settings, Reference frames        : 1 frame
    Format settings, GOP                     : M=1, N=30
    Codec ID                                 : V_MPEG4/ISO/AVC
    Duration                                 : 1 h 33 min
    Bit rate                                 : 2 032 kb/s
    Width                                    : 1 280 pixels
    Height                                   : 720 pixels
    Display aspect ratio                     : 16:9
    Frame rate mode                          : Constant
    Frame rate                               : 30.000 FPS
    Standard                                 : Component
    Color space                              : YUV
    Chroma subsampling                       : 4:2:0
    Bit depth                                : 8 bits
    Scan type                                : Progressive
    Bits/(Pixel*Frame)                       : 0.074
    Stream size                              : 1.33 GiB (88%)
    Title                                    : The Eavesdropper  (2004)(HD)(720p)(x264)(EN-CZ) PHDTeam
    Default                                  : Yes
    Forced                                   : No
    Color range                              : Full
    colour_range_Original                    : Limited

    Audio #1
    ID                                       : 2
    Format                                   : AAC LC
    Format/Info                              : Advanced Audio Codec Low Complexity
    Codec ID                                 : A_AAC-2
    Duration                                 : 1 h 33 min
    Bit rate                                 : 128 kb/s
    Channel(s)                               : 2 channels
    Channel layout                           : L R
    Sampling rate                            : 44.1 kHz
    Frame rate                               : 43.066 FPS (1024 SPF)
    Compression mode                         : Lossy
    Delay relative to video                  : -46 ms
    Stream size                              : 85.5 MiB (6%)
    Language                                 : Czech
    Default                                  : Yes
    Forced                                   : No

    Audio #2
    ID                                       : 3
    Format                                   : AAC LC
    Format/Info                              : Advanced Audio Codec Low Complexity
    Codec ID                                 : A_AAC-2
    Duration                                 : 1 h 33 min
    Bit rate                                 : 128 kb/s
    Channel(s)                               : 2 channels
    Channel layout                           : L R
    Sampling rate                            : 44.1 kHz
    Frame rate                               : 43.066 FPS (1024 SPF)
    Compression mode                         : Lossy
    Delay relative to video                  : -46 ms
    Stream size                              : 85.5 MiB (6%)
    Language                                 : English
    Default                                  : No
    Forced                                   : No











    Madzi, zdenek72, MartinZetek, Liška4444, sgabi8888, KRAKATOA2691,

    + Pridaj vlastnu verziu tohto torrentu +


    Upozornenie:
    Ziadny zo zobrazených súborov sa nenachádza na tomto serveri. Server slúzi len k síreniu vlastnorucne vytvorených aplikácií, videí, hudby ai. Autori stránok nenesú ziadnu zodpovednost za zverejnené odkazy, komentáre a obsah súborov. Vsetky komentáre, odkazy, súbory ktoré by svojou povahou mohli byt v rozpore zo zákonmi sem vkladáte na vlastnú zodpovednost. Autori stránok si vyhradzujú právo cenzúry odkazov, komentárov príp. súborov, ktoré by svojou povahou mohli byt v rozpore zo zákonmi a dobrými mravmi. Dodrzujte pravidlá!


    No comments...


    Back

    Na serveru se nenalézají zádne soubory. Za odkazy jsou výhradně zodpovědní uzivatelé a návstěvníci tohoto trackeru. Administrátor není zodpovědný za pridaný obsah ani za skody zpusobené uzivateli. Rozsirovat stránku nebo její obsah bez souhlasu ownera je zakázano. Nesmíte pouzívat tuto webovou stránku pro distribuovaní nebo download zádného materiálu pokud nemáte povolení od príslusného vlastníka práv. Uzivatelé jsou zodpovědní za dodrzování těchto pravidel a podmínek. Owner má právo kdykoliv změnit pravidla tohoto trackeru.

    [ Script trval: 0.023 sec. ] - [ GZIP: enabled ]
    Je zhruba 22:19
    memcache

    TOPlist