Tvoj účet nieje VIP.
Preto sú tvoje funkcie a možnosti značne obmedzené.
Pre aktiváciu VIP klikni sem.

Pan prstenu: Dve veze / The Lord of the Rings: The Two Towers (2002)(CZ/EN)(2160p 4K BRRip) = CSFD 88% | SkTorrent.eu

Cz-SkTorrent open Tracker, na volné zdielanie súborov. Pridajte sa k nasej komunite a získajte pristup k tisícom torrentov.

  • vysoká rýchlost
  • úplne zdarma
  • prevazne Slovenska a Ceska scena
  • ste tu s nami uz 5 rokov - Dakujeme
  • Vitaj Guest (Login) Ako stahovat
    torrenty?
    Torrenty:
    v1 textová
    v2 obrázková
    v3 online filmy
    Ako sa stat
    Uploaderom
    Online
    Filmy
    Forum
    Pravidlá
    BitTorrent
    klient
    Meno: Heslo:
    Zaregistrovat
    Po zaregistrovaní mozte volne stahovat
    Zabudol som heslo

    Torrent's details
    Pan prstenu: Dve veze / The Lord of the Rings: The Two Towers  (2002)(CZ/EN)(2160p 4K BRRip) = CSFD 88% Názov:Pan prstenu: Dve veze / The Lord of the Rings: The Two Towers (2002)(CZ/EN)(2160p 4K BRRip) = CSFD 88% Hodnocení: Stiahnut
    Pozriet Online
    Kategória:UHD Filmy Velikost:36.7 GB BitTorrent klient
    Pridaný: Súbory:
    Skontrolován:2021-07-18 Peerov:12 (Seed: 9, Leech: 3)
    Zaner:Akcni,Dobrodruzny,Fantasy Uploader:Uvidis, az ked budes
    VIP
    Kúp nám Pivo 1,10€

    Kúp nám Pivo
    Podporte nas na Facebooku !
    Pridaj do zalozky
    Pridaj do zalozky






    Pan prstenu: Dve veze
    The Lord of the Rings: The Two Towers
    (2002)(CZ/EN) = CSFD 88%

    EXTENDED - 2160p 4K HDR10 - HEVC – 22.5 Mb/s Bitrate verzia

    ... Na zelanie ...






    Video: 2160p 4K HDR10 - HEVC
    Jazyk: CZ 5.1 DD / CZ 6.1 DTS / EN 7.1 DD+ / EN 6.1 DTS / EN 5.1 DD
    Titulky: CZ Full + Forced
    Fantasy / Akcni / Dobrodruzny
    USA 2002
    235 min

    Režie: Peter Jackson
    Předloha: John Ronald Reuel Tolkien (kniha)
    Scénář: Fran Walsh, Philippa Boyens, Stephen Sinclair, Peter Jackson
    Kamera: Andrew Lesnie
    Hudba: Howard Shore
    Hrají: Elijah Wood, Ian McKellen, Viggo Mortensen, Sean Astin, Liv Tyler, Billy Boyd, John Rhys-Davies, Dominic Monaghan, Christopher Lee, Miranda Otto, Brad Dourif, Orlando Bloom, Cate Blanchett, Karl Urban, Bernard Hill, David Wenham, Andy Serkis, Craig Parker, Sean Bean, Nathaniel Lees, Robyn Malcolm, Hugo Weaving, Robbie Magasiva, Peter Jackson, John Noble, Billy Jackson, Sala Baker, John Bach, Karlos Drinkwater, Bruce Hopkins, John Leigh, Jed Brophy, Bruce Phillips, Bruce Allpress, Olivia Tennet, Dan Hennah, Barrie M. Osborne, Ben Fransham, Owen Black, Sam Kelly, Alix Bushnell, Samuel E. Shore

    OBSAH

    Po smrti Boromira a rozpadu Společenstva se cesty jeho členů rozdělily. Hobbit Frodo se svým sluhou Samem putují k Hoře Osudu, jen tam mohou sprovodit ze světa obávaný Prsten moci. Musí se však vypořádat se skřetem Glumem, který se snaží Prsten ukrást, ale hobiti ho přemůžou, spoutají a donutí ho, aby je vedl k bráně Mordoru. Aragorn s elfem Legolasem a trpaslíkem Gimlim se vydávají po stopě skřetů, aby osvobodili z jejich zajetí hobbity Smíška a Pippina. Mezitím však sílí moc temného pána Saurona, který se spojil se zrádným čarodějem Sarumanem a společně upínají všechny síly k získání Prstenu. Kdyby ho znovu získali, pak by byla Středozem definitivně odsouzena k zániku. Naše hrdiny tak čeká ještě dlouhé putování a mnohé nástrahy, než se jim podaří Prsten moci jednou provždy zničit.

    SCREEN



    TRAILER






    Hlavní
    Formát : Matroska
    Format version : Version 4
    Velikost souboru : 36,7 GiB
    Duration : 3 h 55 min
    Overall bit rate mode : Variable
    Celkový BitRate : 22,3 Mb/s
    Encoded date : UTC 2021-07-17 21:12:24
    Použitý software : mkvmerge v31.0.0 ('Dolores In A Shoestand') 64-bit
    Enkódoval : libebml v1.3.6 + libmatroska v1.4.9 / Lavf58.45.100
    IMDB : tt0167261
    TMDB : movie/121

    Video
    ID : 1
    Formát : HEVC
    Formát/Info : High Efficiency Video Coding
    Format profile : Main 10@L5.1@Main
    HDR format : SMPTE ST 2086, HDR10 compatible
    Codec ID : V_MPEGH/ISO/HEVC
    Duration : 3 h 55 min
    Bit rate : 14,5 Mb/s
    Šířka : 3 840pixely
    Výška : 1 608pixely
    Poměr stran : 2,40:1
    Frame rate mode : Constant
    Frame rate : 23,976 (24000/1001) FPS
    Color space : YUV
    Chroma subsampling : 4:2:0 (Type 2)
    Bit depth : 10 bits
    Bits/(Pixel*Frame) : 0.098
    Stream size : 23,8 GiB (65%)
    Enkódoval : x265 3.4+22-772b3229d157:[Linux][GCC 7.5.0][64 bit] 10bit
    Default : Ano
    Forced : Ne
    Color range : Limited
    Color primaries : BT.2020
    Transfer characteristics : PQ
    Matrix coefficients : BT.2020 non-constant
    Mastering display color primaries : Display P3
    Mastering display luminance : min: 0.0050 cd/m2, max: 4000 cd/m2
    Maximum Content Light Level : 827 cd/m2
    Maximum Frame-Average Light Level : 329 cd/m2

    Audio #1
    ID : 2
    Formát : E-AC-3
    Formát/Info : Enhanced AC-3
    Commercial name : Dolby Digital Plus
    Codec ID : A_EAC3
    Duration : 3 h 55 min
    Bit rate mode : Constant
    Bit rate : 1 024 kb/s
    Kanál(y) : 8 kanály
    Channel layout : L R C LFE Ls Rs Lb Rb
    Sampling rate : 48,0 kHz
    Frame rate : 31,250 FPS (1536 SPF)
    Compression mode : Lossy
    Stream size : 1,68 GiB (5%)
    Jazyk : English
    Service kind : Complete Main
    Default : Ne
    Forced : Ne

    Audio #2
    ID : 3
    Formát : DTS ES XXCH XLL
    Formát/Info : Digital Theater Systems
    Commercial name : DTS-HD Master Audio
    Codec ID : A_DTS
    Duration : 3 h 55 min
    Bit rate mode : Variable
    Bit rate : 4 394 kb/s
    Kanál(y) : 7 kanály
    Channel layout : C L R Ls Rs LFE Cb
    Sampling rate : 48,0 kHz
    Frame rate : 93,750 FPS (512 SPF)
    Bit depth : 24 bits
    Compression mode : Lossless
    Stream size : 7,23 GiB (20%)
    Jazyk : Czech
    Default : Ne
    Forced : Ne

    Audio #3
    ID : 4
    Formát : AC-3
    Formát/Info : Audio Coding 3
    Commercial name : Dolby Digital
    Codec ID : A_AC3
    Duration : 3 h 55 min
    Bit rate mode : Constant
    Bit rate : 448 kb/s
    Kanál(y) : 6 kanály
    Channel layout : L R C LFE Ls Rs
    Sampling rate : 44,1 kHz
    Frame rate : 28,711 FPS (1536 SPF)
    Compression mode : Lossy
    Stream size : 754 MiB (2%)
    Jazyk : English
    Service kind : Complete Main
    Default : Ne
    Forced : Ne

    Audio #4
    ID : 6
    Formát : AC-3
    Formát/Info : Audio Coding 3
    Commercial name : Dolby Digital
    Codec ID : A_AC3
    Duration : 3 h 55 min
    Bit rate mode : Constant
    Bit rate : 448 kb/s
    Kanál(y) : 6 kanály
    Channel layout : L R C LFE Ls Rs
    Sampling rate : 48,0 kHz
    Frame rate : 31,250 FPS (1536 SPF)
    Compression mode : Lossy
    Stream size : 754 MiB (2%)
    Jazyk : Czech
    Service kind : Complete Main
    Default : Ano
    Forced : Ano

    Audio #5
    ID : 7
    Formát : DTS ES XXCH
    Formát/Info : Digital Theater Systems
    Commercial name : DTS-ES Discrete
    Codec ID : A_DTS
    Duration : 3 h 55 min
    Bit rate mode : Constant
    Bit rate : 1 509 kb/s
    Kanál(y) : 6 kanály
    Channel(s)_Original : 7 kanály
    ChannelLayout_Original : C L R Ls Rs Cs LFE
    Sampling rate : 48,0 kHz
    Frame rate : 93,750 FPS (512 SPF)
    Bit depth : 24 bits
    Compression mode : Lossy
    Stream size : 2,48 GiB (7%)
    Jazyk : English
    Default : Ne
    Forced : Ne

    Text #1
    ID : 5
    Formát : UTF-8
    Codec ID : S_TEXT/UTF8
    Codec ID/Info : UTF-8 Plain Text
    Duration : 3 h 30 min
    Bit rate : 11 b/s
    Count of elements : 543
    Stream size : 17,0 KiB (0%)
    Jazyk : Czech
    Default : Ano
    Forced : Ano

    Text #2
    ID : 8
    Formát : UTF-8
    Codec ID : S_TEXT/UTF8
    Codec ID/Info : UTF-8 Plain Text
    Duration : 3 h 34 min
    Bit rate : 10 b/s
    Count of elements : 546
    Stream size : 17,2 KiB (0%)
    Jazyk : Czech
    Default : Ne
    Forced : Ano

    Text #3
    ID : 9
    Formát : UTF-8
    Codec ID : S_TEXT/UTF8
    Codec ID/Info : UTF-8 Plain Text
    Duration : 3 h 34 min
    Bit rate : 34 b/s
    Count of elements : 1645
    Stream size : 54,7 KiB (0%)
    Jazyk : Czech
    Default : Ne
    Forced : Ne

    Text #4
    ID : 10
    Formát : UTF-8
    Codec ID : S_TEXT/UTF8
    Codec ID/Info : UTF-8 Plain Text
    Duration : 3 h 34 min
    Bit rate : 34 b/s
    Count of elements : 1644
    Stream size : 54,6 KiB (0%)
    Jazyk : Czech
    Default : Ne
    Forced : Ne







    VDAKA ZA BODY a SEEDUJTE
















    martinjc, Roman2196, Rubikuls, SpeedyMajk, mato81,

    + Pridaj vlastnu verziu tohto torrentu +


    Upozornenie:
    Ziadny zo zobrazených súborov sa nenachádza na tomto serveri. Server slúzi len k síreniu vlastnorucne vytvorených aplikácií, videí, hudby ai. Autori stránok nenesú ziadnu zodpovednost za zverejnené odkazy, komentáre a obsah súborov. Vsetky komentáre, odkazy, súbory ktoré by svojou povahou mohli byt v rozpore zo zákonmi sem vkladáte na vlastnú zodpovednost. Autori stránok si vyhradzujú právo cenzúry odkazov, komentárov príp. súborov, ktoré by svojou povahou mohli byt v rozpore zo zákonmi a dobrými mravmi. Dodrzujte pravidlá!


    No comments...


    Back

    Na serveru se nenalézají zádne soubory. Za odkazy jsou výhradně zodpovědní uzivatelé a návstěvníci tohoto trackeru. Administrátor není zodpovědný za pridaný obsah ani za skody zpusobené uzivateli. Rozsirovat stránku nebo její obsah bez souhlasu ownera je zakázano. Nesmíte pouzívat tuto webovou stránku pro distribuovaní nebo download zádného materiálu pokud nemáte povolení od príslusného vlastníka práv. Uzivatelé jsou zodpovědní za dodrzování těchto pravidel a podmínek. Owner má právo kdykoliv změnit pravidla tohoto trackeru.

    [ Script trval: 0.022 sec. ] - [ GZIP: enabled ]
    Je zhruba 15:13

    TOPlist