Tvoj účet nieje VIP.
Preto sú tvoje funkcie a možnosti značne obmedzené.
Pre aktiváciu VIP klikni sem.

Pan prstenu: Navrat Krale / The Lord of the Rings: The Return of the King (2003)(CZ/EN)(2160p 4K BRRip) = CSFD 90% | SkTorrent.eu

Cz-SkTorrent open Tracker, na volné zdielanie súborov. Pridajte sa k nasej komunite a získajte pristup k tisícom torrentov.

  • vysoká rýchlost
  • úplne zdarma
  • prevazne Slovenska a Ceska scena
  • ste tu s nami uz 5 rokov - Dakujeme
  • Vitaj Guest (Login) Ako stahovat
    torrenty?
    Torrenty:
    v1 textová
    v2 obrázková
    v3 online filmy
    Ako sa stat
    Uploaderom
    Online
    Filmy
    Forum
    Pravidlá
    BitTorrent
    klient
    Meno: Heslo:
    Zaregistrovat
    Po zaregistrovaní mozte volne stahovat
    Zabudol som heslo

    Torrent's details
    Pan prstenu: Navrat Krale / The Lord of the Rings: The Return of the King (2003)(CZ/EN)(2160p 4K BRRip) = CSFD 90% Názov:Pan prstenu: Navrat Krale / The Lord of the Rings: The Return of the King (2003)(CZ/EN)(2160p 4K BRRip) = CSFD 90% Hodnocení: Stiahnut
    Pozriet Online
    Kategória:UHD Filmy Velikost:40.0 GB BitTorrent klient
    Pridaný: Súbory:
    Skontrolován:2021-07-19 Peerov:26 (Seed: 13, Leech: 13)
    Zaner:Akcni,Dobrodruzny,Fantasy Uploader:Uvidis, az ked budes
    VIP
    Kúp nám Pivo 1,10€

    Kúp nám Pivo
    Podporte nas na Facebooku !
    Pridaj do zalozky
    Pridaj do zalozky






    Pan prstenu: Navrat Krale
    The Lord of the Rings: The Return of the King
    (2003)(CZ/EN) = CSFD 90%

    EXTENDED - 2160p 4K HDR10 - HEVC – 21.8 Mb/s Bitrate verzia

    ... Na zelanie ...






    Video: 2160p 4K HDR10 - HEVC
    Jazyk: CZ 5.1 DD / EN 7.1 AAC / EN 7.1 TrueHD
    Titulky: CZ Full + Forced
    Fantasy / Akcni / Dobrodruzny
    USA / NWZ 2003
    263 min

    Režie: Peter Jackson
    Předloha: John Ronald Reuel Tolkien (kniha)
    Scénář: Fran Walsh, Philippa Boyens, Peter Jackson
    Kamera: Andrew Lesnie
    Hudba: Howard Shore
    Hrají: Elijah Wood, Noel Appleby, Billy Boyd, Dominic Monaghan, Sean Astin, Ian McKellen, Viggo Mortensen, Orlando Bloom, Liv Tyler, Christopher Lee, Cate Blanchett, John Rhys-Davies, Bernard Hill, Brad Dourif, Miranda Otto, Marton Csokas, Hugo Weaving, Karl Urban, Sean Bean, David Wenham, John Noble, Andy Serkis, Bruce Spence, Peter Jackson, Lawrence Makoare, Billy Jackson, Bret McKenzie, Sala Baker, Joel Tobeck, Alan Howard, Peter Tait, John Bach, Ian Holm, Bruce Hopkins, Pete Smith, Jed Brophy, Bruce Phillips, Shane Rangi, Harry Sinclair, Ali Astin, Ian Hughes, Andrew Lesnie, Richard Taylor, Gino Acevedo, Ross Duncan

    OBSAH

    Rozhodující bitva o Středozem začíná! Čaroděj Gandalf, elf Legolas a trpaslík Gimli spěchají s dědicem trůnu Aragornem na pomoc zemi Gondor, která odolává početnému Sauronovu vojsku. Armáda obránců dobra by byla poražena, nebýt toho, že Aragorn vyzval k boji po svém boku zástupy prokletých mrtvých z nitra hory. Když mu mrtví pomohou v závěrečném boji o Středozem, budou zbaveni kletby. Mezitím hobiti Frodo a Sam se v doprovodu Gluma snaží dostat hluboko do země Mordor, kde musí v ohních Hory osudu zničit magický Prsten moci. Jedině tak bude síla mocného pána temnot Saurona skutečně zlomena. Glumova mysl je omámena mocí prstenu a on udělá všechno proto, aby se mu jeho miláček vrátil. A tak na Froda a Sama, kteří v Glumovi vidí jedinou možnost, jak najít cestu k Hoře osudu, čekají od jejich průvodce nebezpečné nástrahy...

    SCREEN


    TRAILER






    Hlavní
    Formát : Matroska
    Format version : Version 4
    Velikost souboru : 40,0 GiB
    Duration : 4 h 23 min
    Overall bit rate mode : Variable
    Celkový BitRate : 21,8 Mb/s
    Encoded date : UTC 2021-07-18 00:13:37
    Použitý software : mkvmerge v31.0.0 ('Dolores In A Shoestand') 64-bit
    Enkódoval : libebml v1.3.6 + libmatroska v1.4.9

    Video
    ID : 1
    Formát : HEVC
    Formát/Info : High Efficiency Video Coding
    Format profile : Main 10@L5@Main
    HDR format : SMPTE ST 2086, HDR10 compatible
    Codec ID : V_MPEGH/ISO/HEVC
    Duration : 4 h 23 min
    Bit rate : 17,2 Mb/s
    Šířka : 3 840pixely
    Výška : 1 608pixely
    Poměr stran : 2,40:1
    Frame rate mode : Constant
    Frame rate : 23,976 (24000/1001) FPS
    Color space : YUV
    Chroma subsampling : 4:2:0
    Bit depth : 10 bits
    Bits/(Pixel*Frame) : 0.116
    Stream size : 31,6 GiB (79%)
    Enkódoval : x265 3.2+23-52135ffd9bcd:[Windows][GCC 9.2.0][64 bit] 10bit
    Default : Ano
    Forced : Ne
    Color range : Limited
    Color primaries : BT.2020
    Transfer characteristics : PQ
    Matrix coefficients : BT.2020 non-constant
    Mastering display color primaries : Display P3
    Mastering display luminance : min: 0.0050 cd/m2, max: 4000 cd/m2
    Maximum Content Light Level : 636 cd/m2
    Maximum Frame-Average Light Level : 103 cd/m2

    Audio #1
    ID : 2
    Formát : AAC LC
    Formát/Info : Advanced Audio Codec Low Complexity
    Codec ID : A_AAC-2
    Duration : 4 h 23 min
    Bit rate : 883 kb/s
    Kanál(y) : 8 kanály
    Channel layout : C L R Ls Rs Lb Rb LFE
    Sampling rate : 48,0 kHz
    Frame rate : 46,875 FPS (1024 SPF)
    Compression mode : Lossy
    Video delay : 20 ms
    Stream size : 1,62 GiB (4%)
    Jazyk : English
    Default : Ne
    Forced : Ne

    Audio #2
    ID : 3
    Formát : AC-3
    Formát/Info : Audio Coding 3
    Commercial name : Dolby Digital
    Codec ID : A_AC3
    Duration : 4 h 23 min
    Bit rate mode : Constant
    Bit rate : 640 kb/s
    Kanál(y) : 6 kanály
    Channel layout : L R C LFE Ls Rs
    Sampling rate : 48,0 kHz
    Frame rate : 31,250 FPS (1536 SPF)
    Compression mode : Lossy
    Video delay : 83 ms
    Stream size : 1,18 GiB (3%)
    Jazyk : Czech
    Service kind : Complete Main
    Default : Ano
    Forced : Ano

    Audio #3
    ID : 4
    Formát : MLP FBA 16-ch
    Formát/Info : Meridian Lossless Packing FBA with 16-channel presentation
    Commercial name : Dolby TrueHD with Dolby Atmos
    Codec ID : A_TRUEHD
    Duration : 4 h 23 min
    Bit rate mode : Variable
    Bit rate : 2 971 kb/s
    Maximum bit rate : 4 515 kb/s
    Kanál(y) : 8 kanály
    Channel layout : L R C LFE Ls Rs Lb Rb
    Sampling rate : 48,0 kHz
    Frame rate : 1 200,000 FPS (40 SPF)
    Compression mode : Lossless
    Stream size : 5,46 GiB (14%)
    Jazyk : English
    Default : Ne
    Forced : Ne
    Number of dynamic objects : 11
    Bed channel count : 1 kanál
    Bed channel configuration : LFE

    Text #1
    ID : 5
    Formát : UTF-8
    Codec ID : S_TEXT/UTF8
    Codec ID/Info : UTF-8 Plain Text
    Duration : 3 h 53 min
    Bit rate : 8 b/s
    Count of elements : 455
    Stream size : 14,4 KiB (0%)
    Jazyk : Czech
    Default : Ano
    Forced : Ne

    Text #2
    ID : 6
    Formát : UTF-8
    Codec ID : S_TEXT/UTF8
    Codec ID/Info : UTF-8 Plain Text
    Duration : 4 h 0 min
    Bit rate : 26 b/s
    Count of elements : 1596
    Stream size : 46,4 KiB (0%)
    Jazyk : Czech
    Default : Ne
    Forced : Ne

    Menu
    00:00:00.000 : en:Глава 01
    00:06:24.300 : en:Глава 02
    00:09:21.351 : en:Глава 03
    00:11:21.806 : en:Глава 04
    00:18:23.268 : en:Глава 05
    00:23:04.965 : en:Глава 06
    00:27:03.288 : en:Глава 07
    00:29:00.654 : en:Глава 08
    00:37:06.389 : en:Глава 09
    00:40:02.525 : en:Глава 10
    00:42:02.728 : en:Глава 11
    00:47:52.159 : en:Глава 12
    00:50:18.597 : en:Глава 13
    00:52:18.717 : en:Глава 14
    00:55:35.331 : en:Глава 15
    00:59:36.364 : en:Глава 16
    01:00:23.661 : en:Глава 17
    01:00:50.605 : en:Глава 18
    01:04:30.074 : en:Глава 19
    01:07:16.032 : en:Глава 20
    01:10:35.271 : en:Глава 21
    01:14:54.780 : en:Глава 22
    01:17:21.927 : en:Глава 23
    01:19:21.756 : en:Глава 24
    01:20:01.046 : en:Глава 25
    01:21:26.756 : en:Глава 26
    01:23:48.898 : en:Глава 27
    01:29:07.841 : en:Глава 28
    01:33:57.546 : en:Глава 29
    01:38:08.006 : en:Глава 30
    01:42:49.662 : en:Глава 31
    01:45:34.202 : en:Глава 32
    01:46:57.411 : en:Глава 33
    01:49:24.390 : en:Глава 34
    01:51:09.953 : en:Глава 35
    01:58:39.654 : en:Глава 36
    02:07:39.984 : en:Глава 37
    02:07:40.234 : en:Глава 38
    02:08:43.714 : en:Глава 39
    02:17:51.343 : en:Глава 40
    02:19:41.663 : en:Глава 41
    02:20:18.031 : en:Глава 42
    02:21:51.667 : en:Глава 43
    02:22:58.485 : en:Глава 44
    02:29:00.221 : en:Глава 45
    02:30:05.537 : en:Глава 46
    02:32:30.557 : en:Глава 47
    02:36:44.976 : en:Глава 48
    02:38:52.063 : en:Глава 49
    02:43:47.608 : en:Глава 50
    02:45:18.031 : en:Глава 51
    02:47:04.012 : en:Глава 52
    02:47:56.397 : en:Глава 53
    02:48:40.650 : en:Глава 54
    02:51:16.347 : en:Глава 55
    02:53:19.054 : en:Глава 56
    02:54:25.995 : en:Глава 57
    02:56:42.006 : en:Глава 58
    02:57:34.058 : en:Глава 59
    03:04:29.974 : en:Глава 60
    03:06:12.325 : en:Глава 61
    03:07:41.415 : en:Глава 62
    03:08:31.549 : en:Глава 63
    03:12:12.977 : en:Глава 64
    03:16:24.646 : en:Глава 65
    03:19:40.549 : en:Глава 66
    03:23:14.388 : en:Глава 67
    03:25:27.188 : en:Глава 68
    03:26:30.251 : en:Глава 69
    03:28:26.325 : en:Глава 70
    03:29:00.360 : en:Глава 71
    03:34:38.905 : en:Глава 72
    03:36:52.290 : en:Глава 73
    03:40:21.331 : en:Глава 74
    03:42:44.433 : en:Глава 75
    03:47:37.475 : en:Глава 76
    03:52:19.341 : en:Глава 77
    04:01:37.981 : en:Глава 78
    04:12:45.356 : en:Глава 79







    VDAKA ZA BODY a SEEDUJTE
















    mildadknl, Blaster550, Lucifeeer.666, Jenda1975, Roman2196, martinjc, train, MartinS81, Rubikuls, SpeedyMajk, Tomi105, mato81,

    + Pridaj vlastnu verziu tohto torrentu +


    Upozornenie:
    Ziadny zo zobrazených súborov sa nenachádza na tomto serveri. Server slúzi len k síreniu vlastnorucne vytvorených aplikácií, videí, hudby ai. Autori stránok nenesú ziadnu zodpovednost za zverejnené odkazy, komentáre a obsah súborov. Vsetky komentáre, odkazy, súbory ktoré by svojou povahou mohli byt v rozpore zo zákonmi sem vkladáte na vlastnú zodpovednost. Autori stránok si vyhradzujú právo cenzúry odkazov, komentárov príp. súborov, ktoré by svojou povahou mohli byt v rozpore zo zákonmi a dobrými mravmi. Dodrzujte pravidlá!





    0
    kulobrad12345
    Ratio 0.21

    Clen

    01/09/2021 19.08.52
    diky borci tohle je proste klenot


    --------------
    >> 01/09/2021 20.56.02
    UPLOADER:


    Back

    Na serveru se nenalézají zádne soubory. Za odkazy jsou výhradně zodpovědní uzivatelé a návstěvníci tohoto trackeru. Administrátor není zodpovědný za pridaný obsah ani za skody zpusobené uzivateli. Rozsirovat stránku nebo její obsah bez souhlasu ownera je zakázano. Nesmíte pouzívat tuto webovou stránku pro distribuovaní nebo download zádného materiálu pokud nemáte povolení od príslusného vlastníka práv. Uzivatelé jsou zodpovědní za dodrzování těchto pravidel a podmínek. Owner má právo kdykoliv změnit pravidla tohoto trackeru.

    [ Script trval: 0.028 sec. ] - [ GZIP: enabled ]
    Je zhruba 16:13

    TOPlist