Tvoj účet nieje VIP.
Preto sú tvoje funkcie a možnosti značne obmedzené.
Pre aktiváciu VIP klikni sem.

Pan prstenu: Navrat Krale / The Lord of the Rings: The Return of the King (2003)(FHD)(1080p)(WebDl)(Hevc)(CZ+Multi 11 lang)(MultiSub) = CSFD 91% | SkTorrent.eu

Cz-SkTorrent open Tracker, na volné zdielanie súborov. Pridajte sa k nasej komunite a získajte pristup k tisícom torrentov.

  • vysoká rýchlost
  • úplne zdarma
  • prevazne Slovenska a Ceska scena
  • ste tu s nami uz 5 rokov - Dakujeme
  • Vitaj Guest (Login) Ako stahovat
    torrenty?
    Torrenty:
    v1 textová
    v2 obrázková
    v3 online filmy
    Ako sa stat
    Uploaderom
    Online
    Filmy
    Forum
    Pravidlá
    BitTorrent
    klient
    Meno: Heslo:
    Zaregistrovat
    Po zaregistrovaní mozte volne stahovat
    Zabudol som heslo

    Torrent's details
    Pan prstenu: Navrat Krale / The Lord of the Rings: The Return of the King (2003)(FHD)(1080p)(WebDl)(Hevc)(CZ+Multi 11 lang)(MultiSub) = CSFD 91% Názov:Pan prstenu: Navrat Krale / The Lord of the Rings: The Return of the King (2003)(FHD)(1080p)(WebDl)(Hevc)(CZ+Multi 11 lang)(MultiSub) = CSFD 91% Hodnocení:N/A Stiahnut
    Pozriet Online
    Kategória:HD Filmy Velikost:5.4 GB BitTorrent klient
    Pridaný: Súbory:
    Skontrolován:2022-09-19 Peerov:2 (Seed: 2, Leech: 0)
    Zaner:Akcni,Dobrodruzny,Fantasy Uploader:Uvidis, az ked budes
    VIP
    Kúp nám Pivo 1,10€

    Kúp nám Pivo
    Podporte nas na Facebooku !
    Pridaj do zalozky
    Pridaj do zalozky






    [center]





    Movie Name: The Lord of the Rings - The Return of the King (2003)
    IMDb Rating: 9.0/10

    Quality: 1080p (WebDL)
    Language: AAC 2.0 - Germany, English , Spanish, Italian , Portuguese , French , Hungarian , Polish , Czech , Japanese , Turkish
    Subtitles: Multi 32+
    Director: Peter Jackson
    Writers: J.R.R. Tolkien (novel "The Fellowship of the Ring") Fran Walsh (screenplay) Philippa Boyens (screenplay)
    Genres: Action | Adventure | Drama |


    Gandalf and Aragorn lead the World of Men against Sauron's army to draw his gaze from Frodo and Sam as they approach Mount Doom with the One Ring.




    [/center]

    Format                                   : MPEG-4
    Format profile                           : Base Media
    Codec ID                                 : isom (isom/iso2/mp41)
    File size                                : 5.36 GiB
    Duration                                 : 3 h 20 min
    Overall bit rate mode                    : Variable
    Overall bit rate                         : 3 820 kb/s
    Collection                               : The Lord Of The Rings: The Return Of The King
    Track name                               : The Lord Of The Rings: The Return Of The King
    Description                              : Jeden prsten vládne všem. Jeden jim všem káže. Jeden všechny přivede. Do temnoty sváže. V závěru epického mistrovského díla J.R.R.
    Recorded date                            : 2003
    Writing application                      : Lavf58.76.100
    Cover                                    : Yes

    Video
    ID                                       : 1
    Format                                   : HEVC
    Format/Info                              : High Efficiency Video Coding
    Format profile                           : Main@L4@Main
    Codec ID                                 : hev1
    Codec ID/Info                            : High Efficiency Video Coding
    Duration                                 : 3 h 20 min
    Bit rate                                 : 2 357 kb/s
    Width                                    : 1 920 pixels
    Height                                   : 800 pixels
    Display aspect ratio                     : 2.40:1
    Frame rate mode                          : Constant
    Frame rate                               : 23.976 (24000/1001) FPS
    Standard                                 : NTSC
    Color space                              : YUV
    Chroma subsampling                       : 4:2:0
    Bit depth                                : 8 bits
    Bits/(Pixel*Frame)                       : 0.064
    Stream size                              : 3.31 GiB (62%)
    Color range                              : Limited
    Color primaries                          : BT.709
    Transfer characteristics                 : BT.709
    Matrix coefficients                      : BT.709
    Codec configuration box                  : hvcC

    Audio #1
    ID                                       : 3
    Format                                   : AAC LC
    Format/Info                              : Advanced Audio Codec Low Complexity
    Codec ID                                 : mp4a-40-2
    Duration                                 : 3 h 20 min
    Bit rate mode                            : Constant
    Bit rate                                 : 128 kb/s
    Channel(s)                               : 2 channels
    Channel layout                           : L R
    Sampling rate                            : 48.0 kHz
    Frame rate                               : 46.875 FPS (1024 SPF)
    Compression mode                         : Lossy
    Stream size                              : 184 MiB (3%)
    Language                                 : Catalan
    Default                                  : Yes
    Alternate group                          : 2

    Audio #2
    ID                                       : 4
    Format                                   : AAC LC
    Format/Info                              : Advanced Audio Codec Low Complexity
    Codec ID                                 : mp4a-40-2
    Duration                                 : 3 h 20 min
    Bit rate mode                            : Constant
    Bit rate                                 : 128 kb/s
    Channel(s)                               : 2 channels
    Channel layout                           : L R
    Sampling rate                            : 48.0 kHz
    Frame rate                               : 46.875 FPS (1024 SPF)
    Compression mode                         : Lossy
    Stream size                              : 184 MiB (3%)
    Language                                 : English
    Default                                  : Yes
    Alternate group                          : 3

    Audio #3
    ID                                       : 5
    Format                                   : AAC LC
    Format/Info                              : Advanced Audio Codec Low Complexity
    Codec ID                                 : mp4a-40-2
    Duration                                 : 3 h 20 min
    Bit rate mode                            : Constant
    Bit rate                                 : 128 kb/s
    Channel(s)                               : 2 channels
    Channel layout                           : L R
    Sampling rate                            : 48.0 kHz
    Frame rate                               : 46.875 FPS (1024 SPF)
    Compression mode                         : Lossy
    Stream size                              : 184 MiB (3%)
    Language                                 : Spanish
    Default                                  : Yes
    Alternate group                          : 4

    Audio #4
    ID                                       : 6
    Format                                   : AAC LC
    Format/Info                              : Advanced Audio Codec Low Complexity
    Codec ID                                 : mp4a-40-2
    Duration                                 : 3 h 20 min
    Bit rate mode                            : Constant
    Bit rate                                 : 128 kb/s
    Channel(s)                               : 2 channels
    Channel layout                           : L R
    Sampling rate                            : 48.0 kHz
    Frame rate                               : 46.875 FPS (1024 SPF)
    Compression mode                         : Lossy
    Stream size                              : 184 MiB (3%)
    Language                                 : French
    Default                                  : Yes
    Alternate group                          : 5

    Audio #5
    ID                                       : 7
    Format                                   : AAC LC
    Format/Info                              : Advanced Audio Codec Low Complexity
    Codec ID                                 : mp4a-40-2
    Duration                                 : 3 h 20 min
    Bit rate mode                            : Constant
    Bit rate                                 : 128 kb/s
    Channel(s)                               : 2 channels
    Channel layout                           : L R
    Sampling rate                            : 48.0 kHz
    Frame rate                               : 46.875 FPS (1024 SPF)
    Compression mode                         : Lossy
    Stream size                              : 184 MiB (3%)
    Language                                 : Italian
    Default                                  : Yes
    Alternate group                          : 6

    Audio #6
    ID                                       : 8
    Format                                   : AAC LC
    Format/Info                              : Advanced Audio Codec Low Complexity
    Codec ID                                 : mp4a-40-2
    Duration                                 : 3 h 20 min
    Bit rate mode                            : Constant
    Bit rate                                 : 128 kb/s
    Channel(s)                               : 2 channels
    Channel layout                           : L R
    Sampling rate                            : 48.0 kHz
    Frame rate                               : 46.875 FPS (1024 SPF)
    Compression mode                         : Lossy
    Stream size                              : 184 MiB (3%)
    Language                                 : Hungarian
    Default                                  : Yes
    Alternate group                          : 7

    Audio #7
    ID                                       : 9
    Format                                   : AAC LC
    Format/Info                              : Advanced Audio Codec Low Complexity
    Codec ID                                 : mp4a-40-2
    Duration                                 : 3 h 20 min
    Bit rate mode                            : Constant
    Bit rate                                 : 128 kb/s
    Channel(s)                               : 2 channels
    Channel layout                           : L R
    Sampling rate                            : 48.0 kHz
    Frame rate                               : 46.875 FPS (1024 SPF)
    Compression mode                         : Lossy
    Stream size                              : 184 MiB (3%)
    Language                                 : Polish
    Default                                  : Yes
    Alternate group                          : 8

    Audio #8
    ID                                       : 10
    Format                                   : AAC LC
    Format/Info                              : Advanced Audio Codec Low Complexity
    Codec ID                                 : mp4a-40-2
    Duration                                 : 3 h 20 min
    Bit rate mode                            : Constant
    Bit rate                                 : 128 kb/s
    Channel(s)                               : 2 channels
    Channel layout                           : L R
    Sampling rate                            : 48.0 kHz
    Frame rate                               : 46.875 FPS (1024 SPF)
    Compression mode                         : Lossy
    Stream size                              : 184 MiB (3%)
    Language                                 : Portuguese
    Default                                  : Yes
    Alternate group                          : 9

    Audio #9
    ID                                       : 11
    Format                                   : AAC LC
    Format/Info                              : Advanced Audio Codec Low Complexity
    Codec ID                                 : mp4a-40-2
    Duration                                 : 3 h 20 min
    Bit rate mode                            : Constant
    Bit rate                                 : 128 kb/s
    Channel(s)                               : 2 channels
    Channel layout                           : L R
    Sampling rate                            : 48.0 kHz
    Frame rate                               : 46.875 FPS (1024 SPF)
    Compression mode                         : Lossy
    Stream size                              : 184 MiB (3%)
    Language                                 : Turkish
    Default                                  : Yes
    Alternate group                          : 10

    Audio #10
    ID                                       : 12
    Format                                   : AAC LC
    Format/Info                              : Advanced Audio Codec Low Complexity
    Codec ID                                 : mp4a-40-2
    Duration                                 : 3 h 20 min
    Bit rate mode                            : Constant
    Bit rate                                 : 128 kb/s
    Channel(s)                               : 2 channels
    Channel layout                           : L R
    Sampling rate                            : 48.0 kHz
    Frame rate                               : 46.875 FPS (1024 SPF)
    Compression mode                         : Lossy
    Stream size                              : 184 MiB (3%)
    Language                                 : Czech
    Default                                  : Yes
    Alternate group                          : 11

    Audio #11
    ID                                       : 13
    Format                                   : AAC LC
    Format/Info                              : Advanced Audio Codec Low Complexity
    Codec ID                                 : mp4a-40-2
    Duration                                 : 3 h 20 min
    Bit rate mode                            : Constant
    Bit rate                                 : 128 kb/s
    Channel(s)                               : 2 channels
    Channel layout                           : L R
    Sampling rate                            : 48.0 kHz
    Frame rate                               : 46.875 FPS (1024 SPF)
    Compression mode                         : Lossy
    Stream size                              : 184 MiB (3%)
    Language                                 : Japanese
    Default                                  : Yes
    Alternate group                          : 12

    Text #1
    ID                                       : 14
    Format                                   : Timed Text
    Muxing mode                              : sbtl
    Codec ID                                 : tx3g
    Duration                                 : 9 min 58 s
    Bit rate mode                            : Variable
    Bit rate                                 : 2 b/s
    Stream size                              : 150 Bytes (0%)
    Language                                 : Catalan
    Default                                  : Yes
    Forced                                   : No
    Alternate group                          : 13

    Text #2
    ID                                       : 15
    Format                                   : Timed Text
    Muxing mode                              : sbtl
    Codec ID                                 : tx3g
    Duration                                 : 9 s 677 ms
    Bit rate mode                            : Variable
    Bit rate                                 : 80 b/s
    Stream size                              : 97.0 Bytes (0%)
    Language                                 : Spanish
    Default                                  : No
    Forced                                   : No
    Alternate group                          : 14

    Text #3
    ID                                       : 16
    Format                                   : Timed Text
    Muxing mode                              : sbtl
    Codec ID                                 : tx3g
    Duration                                 : 18 s 20 ms
    Bit rate mode                            : Variable
    Bit rate                                 : 69 b/s
    Stream size                              : 155 Bytes (0%)
    Language                                 : Spanish
    Default                                  : No
    Forced                                   : No
    Alternate group                          : 15

    Text #4
    ID                                       : 17
    Format                                   : Timed Text
    Muxing mode                              : sbtl
    Codec ID                                 : tx3g
    Duration                                 : 12 s 972 ms
    Bit rate mode                            : Variable
    Bit rate                                 : 97 b/s
    Stream size                              : 158 Bytes (0%)
    Language                                 : French
    Default                                  : No
    Forced                                   : No
    Alternate group                          : 16

    Text #5
    ID                                       : 18
    Format                                   : Timed Text
    Muxing mode                              : sbtl
    Codec ID                                 : tx3g
    Duration                                 : 21 s 355 ms
    Bit rate mode                            : Variable
    Bit rate                                 : 82 b/s
    Stream size                              : 218 Bytes (0%)
    Language                                 : Italian
    Default                                  : No
    Forced                                   : No
    Alternate group                          : 17

    Text #6
    ID                                       : 19
    Format                                   : Timed Text
    Muxing mode                              : sbtl
    Codec ID                                 : tx3g
    Duration                                 : 9 min 53 s
    Bit rate mode                            : Variable
    Bit rate                                 : 2 b/s
    Stream size                              : 141 Bytes (0%)
    Language                                 : Hungarian
    Default                                  : No
    Forced                                   : No
    Alternate group                          : 18

    Text #7
    ID                                       : 20
    Format                                   : Timed Text
    Muxing mode                              : sbtl
    Codec ID                                 : tx3g
    Duration                                 : 13 s 15 ms
    Bit rate mode                            : Variable
    Bit rate                                 : 79 b/s
    Stream size                              : 129 Bytes (0%)
    Language                                 : Polish
    Default                                  : No
    Forced                                   : No
    Alternate group                          : 19

    Text #8
    ID                                       : 21
    Format                                   : Timed Text
    Muxing mode                              : sbtl
    Codec ID                                 : tx3g
    Duration                                 : 9 s 803 ms
    Bit rate mode                            : Variable
    Bit rate                                 : 90 b/s
    Stream size                              : 110 Bytes (0%)
    Language                                 : Portuguese
    Default                                  : No
    Forced                                   : No
    Alternate group                          : 20

    Text #9
    ID                                       : 22
    Format                                   : Timed Text
    Muxing mode                              : sbtl
    Codec ID                                 : tx3g
    Duration                                 : 12 s 680 ms
    Bit rate mode                            : Variable
    Bit rate                                 : 105 b/s
    Stream size                              : 167 Bytes (0%)
    Language                                 : Turkish
    Default                                  : No
    Forced                                   : No
    Alternate group                          : 21

    Text #10
    ID                                       : 23
    Format                                   : Timed Text
    Muxing mode                              : sbtl
    Codec ID                                 : tx3g
    Duration                                 : 12 s 723 ms
    Bit rate mode                            : Variable
    Bit rate                                 : 96 b/s
    Stream size                              : 153 Bytes (0%)
    Default                                  : No
    Forced                                   : No
    Alternate group                          : 22

    Text #11
    ID                                       : 24
    Format                                   : Timed Text
    Muxing mode                              : sbtl
    Codec ID                                 : tx3g
    Duration                                 : 34 min 21 s
    Bit rate mode                            : Variable
    Bit rate                                 : 10 b/s
    Stream size                              : 2.46 KiB (0%)
    Language                                 : Japanese
    Default                                  : No
    Forced                                   : No
    Alternate group                          : 23

    Text #12
    ID                                       : 25
    Format                                   : Timed Text
    Muxing mode                              : sbtl
    Codec ID                                 : tx3g
    Duration                                 : 3 h 20 min
    Bit rate mode                            : Variable
    Bit rate                                 : 28 b/s
    Stream size                              : 41.2 KiB (0%)
    Language                                 : Danish
    Default                                  : No
    Forced                                   : No
    Alternate group                          : 24

    Text #13
    ID                                       : 26
    Format                                   : Timed Text
    Muxing mode                              : sbtl
    Codec ID                                 : tx3g
    Duration                                 : 3 h 17 min
    Bit rate mode                            : Variable
    Bit rate                                 : 32 b/s
    Stream size                              : 46.9 KiB (0%)
    Language                                 : English
    Default                                  : No
    Forced                                   : No
    Alternate group                          : 25

    Text #14
    ID                                       : 27
    Format                                   : Timed Text
    Muxing mode                              : sbtl
    Codec ID                                 : tx3g
    Duration                                 : 3 h 17 min
    Bit rate mode                            : Variable
    Bit rate                                 : 30 b/s
    Stream size                              : 43.0 KiB (0%)
    Language                                 : Spanish
    Default                                  : No
    Forced                                   : No
    Alternate group                          : 26

    Text #15
    ID                                       : 28
    Format                                   : Timed Text
    Muxing mode                              : sbtl
    Codec ID                                 : tx3g
    Duration                                 : 3 h 12 min
    Bit rate mode                            : Variable
    Bit rate                                 : 30 b/s
    Stream size                              : 41.8 KiB (0%)
    Language                                 : Spanish
    Default                                  : No
    Forced                                   : No
    Alternate group                          : 27

    Text #16
    ID                                       : 29
    Format                                   : Timed Text
    Muxing mode                              : sbtl
    Codec ID                                 : tx3g
    Duration                                 : 3 h 12 min
    Bit rate mode                            : Variable
    Bit rate                                 : 30 b/s
    Stream size                              : 41.8 KiB (0%)
    Language                                 : Spanish
    Default                                  : No
    Forced                                   : No
    Alternate group                          : 28

    Text #17
    ID                                       : 30
    Format                                   : Timed Text
    Muxing mode                              : sbtl
    Codec ID                                 : tx3g
    Duration                                 : 3 h 17 min
    Bit rate mode                            : Variable
    Bit rate                                 : 32 b/s
    Stream size                              : 45.9 KiB (0%)
    Language                                 : French
    Default                                  : No
    Forced                                   : No
    Alternate group                          : 29

    Text #18
    ID                                       : 31
    Format                                   : Timed Text
    Muxing mode                              : sbtl
    Codec ID                                 : tx3g
    Duration                                 : 3 h 17 min
    Bit rate mode                            : Variable
    Bit rate                                 : 30 b/s
    Stream size                              : 43.6 KiB (0%)
    Language                                 : Italian
    Default                                  : No
    Forced                                   : No
    Alternate group                          : 30

    Text #19
    ID                                       : 32
    Format                                   : Timed Text
    Muxing mode                              : sbtl
    Codec ID                                 : tx3g
    Duration                                 : 3 h 20 min
    Bit rate mode                            : Variable
    Bit rate                                 : 26 b/s
    Stream size                              : 37.6 KiB (0%)
    Language                                 : Hungarian
    Default                                  : No
    Forced                                   : No
    Alternate group                          : 31

    Text #20
    ID                                       : 33
    Format                                   : Timed Text
    Muxing mode                              : sbtl
    Codec ID                                 : tx3g
    Duration                                 : 3 h 17 min
    Bit rate mode                            : Variable
    Bit rate                                 : 29 b/s
    Stream size                              : 41.7 KiB (0%)
    Language                                 : Dutch
    Default                                  : No
    Forced                                   : No
    Alternate group                          : 32

    Text #21
    ID                                       : 34
    Format                                   : Timed Text
    Muxing mode                              : sbtl
    Codec ID                                 : tx3g
    Duration                                 : 3 h 20 min
    Bit rate mode                            : Variable
    Bit rate                                 : 25 b/s
    Stream size                              : 36.6 KiB (0%)
    Language                                 : Polish
    Default                                  : No
    Forced                                   : No
    Alternate group                          : 33

    Text #22
    ID                                       : 35
    Format                                   : Timed Text
    Muxing mode                              : sbtl
    Codec ID                                 : tx3g
    Duration                                 : 3 h 20 min
    Bit rate mode                            : Variable
    Bit rate                                 : 30 b/s
    Stream size                              : 43.9 KiB (0%)
    Language                                 : Portuguese
    Default                                  : No
    Forced                                   : No
    Alternate group                          : 34

    Text #23
    ID                                       : 36
    Format                                   : Timed Text
    Muxing mode                              : sbtl
    Codec ID                                 : tx3g
    Duration                                 : 3 h 20 min
    Bit rate mode                            : Variable
    Bit rate                                 : 30 b/s
    Stream size                              : 43.9 KiB (0%)
    Language                                 : Portuguese
    Default                                  : No
    Forced                                   : No
    Alternate group                          : 35

    Text #24
    ID                                       : 37
    Format                                   : Timed Text
    Muxing mode                              : sbtl
    Codec ID                                 : tx3g
    Duration                                 : 3 h 20 min
    Bit rate mode                            : Variable
    Bit rate                                 : 29 b/s
    Stream size                              : 42.8 KiB (0%)
    Language                                 : Portuguese
    Default                                  : No
    Forced                                   : No
    Alternate group                          : 36

    Text #25
    ID                                       : 38
    Format                                   : Timed Text
    Muxing mode                              : sbtl
    Codec ID                                 : tx3g
    Duration                                 : 3 h 11 min
    Bit rate mode                            : Variable
    Bit rate                                 : 31 b/s
    Stream size                              : 42.9 KiB (0%)
    Language                                 : Romanian
    Default                                  : No
    Forced                                   : No
    Alternate group                          : 37

    Text #26
    ID                                       : 39
    Format                                   : Timed Text
    Muxing mode                              : sbtl
    Codec ID                                 : tx3g
    Duration                                 : 3 h 20 min
    Bit rate mode                            : Variable
    Bit rate                                 : 28 b/s
    Stream size                              : 40.7 KiB (0%)
    Language                                 : Finnish
    Default                                  : No
    Forced                                   : No
    Alternate group                          : 38

    Text #27
    ID                                       : 40
    Format                                   : Timed Text
    Muxing mode                              : sbtl
    Codec ID                                 : tx3g
    Duration                                 : 3 h 20 min
    Bit rate mode                            : Variable
    Bit rate                                 : 28 b/s
    Stream size                              : 41.6 KiB (0%)
    Language                                 : Swedish
    Default                                  : No
    Forced                                   : No
    Alternate group                          : 39

    Text #28
    ID                                       : 41
    Format                                   : Timed Text
    Muxing mode                              : sbtl
    Codec ID                                 : tx3g
    Duration                                 : 3 h 20 min
    Bit rate mode                            : Variable
    Bit rate                                 : 28 b/s
    Stream size                              : 41.6 KiB (0%)
    Language                                 : Swedish
    Default                                  : No
    Forced                                   : No
    Alternate group                          : 40

    Text #29
    ID                                       : 42
    Format                                   : Timed Text
    Muxing mode                              : sbtl
    Codec ID                                 : tx3g
    Duration                                 : 3 h 20 min
    Bit rate mode                            : Variable
    Bit rate                                 : 29 b/s
    Stream size                              : 42.4 KiB (0%)
    Language                                 : Turkish
    Default                                  : No
    Forced                                   : No
    Alternate group                          : 41

    Text #30
    ID                                       : 43
    Format                                   : Timed Text
    Muxing mode                              : sbtl
    Codec ID                                 : tx3g
    Duration                                 : 3 h 20 min
    Bit rate mode                            : Variable
    Bit rate                                 : 49 b/s
    Stream size                              : 72.4 KiB (0%)
    Language                                 : Greek
    Default                                  : No
    Forced                                   : No
    Alternate group                          : 42

    Text #31
    ID                                       : 44
    Format                                   : Timed Text
    Muxing mode                              : sbtl
    Codec ID                                 : tx3g
    Duration                                 : 3 h 17 min
    Bit rate mode                            : Variable
    Bit rate                                 : 30 b/s
    Stream size                              : 43.4 KiB (0%)
    Language                                 : Japanese
    Default                                  : No
    Forced                                   : No
    Alternate group                          : 43










    Upozornenie:
    Ziadny zo zobrazených súborov sa nenachádza na tomto serveri. Server slúzi len k síreniu vlastnorucne vytvorených aplikácií, videí, hudby ai. Autori stránok nenesú ziadnu zodpovednost za zverejnené odkazy, komentáre a obsah súborov. Vsetky komentáre, odkazy, súbory ktoré by svojou povahou mohli byt v rozpore zo zákonmi sem vkladáte na vlastnú zodpovednost. Autori stránok si vyhradzujú právo cenzúry odkazov, komentárov príp. súborov, ktoré by svojou povahou mohli byt v rozpore zo zákonmi a dobrými mravmi. Dodrzujte pravidlá!


    No comments...


    Back

    Na serveru se nenalézají zádne soubory. Za odkazy jsou výhradně zodpovědní uzivatelé a návstěvníci tohoto trackeru. Administrátor není zodpovědný za pridaný obsah ani za skody zpusobené uzivateli. Rozsirovat stránku nebo její obsah bez souhlasu ownera je zakázano. Nesmíte pouzívat tuto webovou stránku pro distribuovaní nebo download zádného materiálu pokud nemáte povolení od príslusného vlastníka práv. Uzivatelé jsou zodpovědní za dodrzování těchto pravidel a podmínek. Owner má právo kdykoliv změnit pravidla tohoto trackeru.

    [ Script trval: 0.027 sec. ] - [ GZIP: enabled ]
    Je zhruba 20:16
    sql

    TOPlist