Tvoj účet nieje VIP.
Preto sú tvoje funkcie a možnosti značne obmedzené.
Pre aktiváciu VIP klikni sem.

Pan prstenu: Prsteny moci / The Lord of the Rings: The Rings of Power (S01E04) - Velka vlna (x264) CZ+Multi Lang = CSFD 66% | SkTorrent.eu

Cz-SkTorrent open Tracker, na volné zdielanie súborov. Pridajte sa k nasej komunite a získajte pristup k tisícom torrentov.

  • vysoká rýchlost
  • úplne zdarma
  • prevazne Slovenska a Ceska scena
  • ste tu s nami uz 5 rokov - Dakujeme
  • Vitaj Guest (Login) Ako stahovat
    torrenty?
    Torrenty:
    v1 textová
    v2 obrázková
    v3 online filmy
    Ako sa stat
    Uploaderom
    Online
    Filmy
    Forum
    Pravidlá
    BitTorrent
    klient
    Meno: Heslo:
    Zaregistrovat
    Po zaregistrovaní mozte volne stahovat
    Zabudol som heslo

    Torrent's details
    Pan prstenu: Prsteny moci / The Lord of the Rings: The Rings of Power (S01E04) - Velka vlna (x264) CZ+Multi Lang = CSFD 66% Názov:Pan prstenu: Prsteny moci / The Lord of the Rings: The Rings of Power (S01E04) - Velka vlna (x264) CZ+Multi Lang = CSFD 66% Hodnocení: Stiahnut
    Pozriet Online
    Kategória:Seriál Velikost:11.4 GB BitTorrent klient
    Pridaný: Súbory:
    Skontrolován:2022-09-19 Peerov:14 (Seed: 13, Leech: 1)
    Zaner:Akcni,Dobrodruzny,Drama,Fantasy Uploader:Uvidis, az ked budes
    VIP
    Kúp nám Pivo 1,10€

    Kúp nám Pivo
    Podporte nas na Facebooku !
    Pridaj do zalozky
    Pridaj do zalozky






    [center]





    Movie Name: The Lord of the Rings - The Rings of Power (S01E04) - The Great Wave
    IMDb Rating: 7.0/10

    Quality: 1080p (WebDL)
    Language: E-AC-3 5.1 640kb/s - Germany, English , Spanish, Italian , Portuguese , French , Polish , Czech , Hungarian , Dutch , Korean , Japanese , Hindi , Turkish , Tamil , Telugu , Bengal , Malay , Catalan , Galician , Indonesian , Romanian , Vietnamese , Greek , Hebrew , Arabic , Kannada , Malayalam , Thai
    Subtitles: Multi 32+
    Director: J.A. Bayona, Wayne Yip, Charlotte Brändström
    Writers: Helen Shang, Gennifer Hutchison, Justin Doble, Stephany Folsom, Patrick McKay, John D. Payne, Glenise Mullins
    Genres: Action | Adventure | Drama


    Epic drama set thousands of years before the events of J.R.R. Tolkien's 'The Hobbit' and 'The Lord of the Rings' follows an ensemble cast of characters, both familiar and new, as they confront the long-feared re-emergence of evil to Middle-earth.




    [/center]

    Format                                   : Matroska
    Format version                           : Version 4
    File size                                : 11.4 GiB
    Duration                                 : 1 h 11 min
    Overall bit rate                         : 22.8 Mb/s
    Movie name                               : La Grande Vague
    Description                              : La foi de la Reine Régente Míriel est mise à l'épreuve ; Isildur se trouve à un carrefour ; Elrond découvre un secret ; Arondir reçoit un ultimatum ; Theo désobéit à Bronwyn.
    Writing application                      : Lavf58.76.100
    Writing library                          : Lavf58.76.100
    ErrorDetectionType                       : Per level 1
    DATE                                     : 2022
    EPISODE_ID                               : 4
    SEASON_NUMBER                            : 1
    SHOW                                     : Le Seigneur des Anneaux: Les Anneaux de Pouvoir

    Video
    ID                                       : 1
    Format                                   : AVC
    Format/Info                              : Advanced Video Codec
    Format profile                           : High@L4
    Format settings                          : CABAC / 4 Ref Frames
    Format settings, CABAC                   : Yes
    Format settings, Reference frames        : 4 frames
    Codec ID                                 : V_MPEG4/ISO/AVC
    Duration                                 : 1 h 11 min
    Bit rate                                 : 4 458 kb/s
    Width                                    : 1 920 pixels
    Height                                   : 800 pixels
    Display aspect ratio                     : 2.40:1
    Frame rate mode                          : Constant
    Frame rate                               : 24.000 FPS
    Color space                              : YUV
    Chroma subsampling                       : 4:2:0
    Bit depth                                : 8 bits
    Scan type                                : Progressive
    Bits/(Pixel*Frame)                       : 0.121
    Stream size                              : 2.23 GiB (20%)
    Writing library                          : AVC Coding
    Default                                  : Yes
    Forced                                   : No
    Color range                              : Limited
    Color primaries                          : BT.709
    Transfer characteristics                 : BT.709
    Matrix coefficients                      : BT.709
    VENDOR_ID                                : [0][0][0][0]

    Audio #1
    ID                                       : 2
    Format                                   : E-AC-3
    Format/Info                              : Enhanced AC-3
    Commercial name                          : Dolby Digital Plus
    Codec ID                                 : A_EAC3
    Duration                                 : 1 h 11 min
    Bit rate mode                            : Constant
    Bit rate                                 : 640 kb/s
    Channel(s)                               : 6 channels
    Channel layout                           : L R C LFE Ls Rs
    Sampling rate                            : 48.0 kHz
    Frame rate                               : 31.250 FPS (1536 SPF)
    Bit depth                                : 32 bits
    Compression mode                         : Lossy
    Stream size                              : 328 MiB (3%)
    Language                                 : Malay
    Service kind                             : Complete Main
    Default                                  : Yes
    Forced                                   : No
    VENDOR_ID                                : [0][0][0][0]

    Audio #2
    ID                                       : 3
    Format                                   : E-AC-3
    Format/Info                              : Enhanced AC-3
    Commercial name                          : Dolby Digital Plus
    Codec ID                                 : A_EAC3
    Duration                                 : 1 h 11 min
    Bit rate mode                            : Constant
    Bit rate                                 : 640 kb/s
    Channel(s)                               : 6 channels
    Channel layout                           : L R C LFE Ls Rs
    Sampling rate                            : 48.0 kHz
    Frame rate                               : 31.250 FPS (1536 SPF)
    Bit depth                                : 32 bits
    Compression mode                         : Lossy
    Stream size                              : 328 MiB (3%)
    Language                                 : Catalan
    Service kind                             : Complete Main
    Default                                  : No
    Forced                                   : No
    VENDOR_ID                                : [0][0][0][0]

    Audio #3
    ID                                       : 4
    Format                                   : E-AC-3
    Format/Info                              : Enhanced AC-3
    Commercial name                          : Dolby Digital Plus
    Codec ID                                 : A_EAC3
    Duration                                 : 1 h 11 min
    Bit rate mode                            : Constant
    Bit rate                                 : 640 kb/s
    Channel(s)                               : 6 channels
    Channel layout                           : L R C LFE Ls Rs
    Sampling rate                            : 48.0 kHz
    Frame rate                               : 31.250 FPS (1536 SPF)
    Bit depth                                : 32 bits
    Compression mode                         : Lossy
    Stream size                              : 328 MiB (3%)
    Language                                 : German
    Service kind                             : Complete Main
    Default                                  : No
    Forced                                   : No
    VENDOR_ID                                : [0][0][0][0]

    Audio #4
    ID                                       : 5
    Format                                   : E-AC-3
    Format/Info                              : Enhanced AC-3
    Commercial name                          : Dolby Digital Plus
    Codec ID                                 : A_EAC3
    Duration                                 : 1 h 11 min
    Bit rate mode                            : Constant
    Bit rate                                 : 640 kb/s
    Channel(s)                               : 6 channels
    Channel layout                           : L R C LFE Ls Rs
    Sampling rate                            : 48.0 kHz
    Frame rate                               : 31.250 FPS (1536 SPF)
    Bit depth                                : 32 bits
    Compression mode                         : Lossy
    Stream size                              : 328 MiB (3%)
    Language                                 : English
    Service kind                             : Complete Main
    Default                                  : No
    Forced                                   : No
    VENDOR_ID                                : [0][0][0][0]

    Audio #5
    ID                                       : 6
    Format                                   : E-AC-3
    Format/Info                              : Enhanced AC-3
    Commercial name                          : Dolby Digital Plus
    Codec ID                                 : A_EAC3
    Duration                                 : 1 h 11 min
    Bit rate mode                            : Constant
    Bit rate                                 : 640 kb/s
    Channel(s)                               : 6 channels
    Channel layout                           : L R C LFE Ls Rs
    Sampling rate                            : 48.0 kHz
    Frame rate                               : 31.250 FPS (1536 SPF)
    Bit depth                                : 32 bits
    Compression mode                         : Lossy
    Stream size                              : 328 MiB (3%)
    Language                                 : Spanish
    Service kind                             : Complete Main
    Default                                  : No
    Forced                                   : No
    VENDOR_ID                                : [0][0][0][0]

    Audio #6
    ID                                       : 7
    Format                                   : E-AC-3
    Format/Info                              : Enhanced AC-3
    Commercial name                          : Dolby Digital Plus
    Codec ID                                 : A_EAC3
    Duration                                 : 1 h 11 min
    Bit rate mode                            : Constant
    Bit rate                                 : 640 kb/s
    Channel(s)                               : 6 channels
    Channel layout                           : L R C LFE Ls Rs
    Sampling rate                            : 48.0 kHz
    Frame rate                               : 31.250 FPS (1536 SPF)
    Bit depth                                : 32 bits
    Compression mode                         : Lossy
    Stream size                              : 328 MiB (3%)
    Service kind                             : Complete Main
    Default                                  : No
    Forced                                   : No
    VENDOR_ID                                : [0][0][0][0]

    Audio #7
    ID                                       : 8
    Format                                   : E-AC-3
    Format/Info                              : Enhanced AC-3
    Commercial name                          : Dolby Digital Plus
    Codec ID                                 : A_EAC3
    Duration                                 : 1 h 11 min
    Bit rate mode                            : Constant
    Bit rate                                 : 640 kb/s
    Channel(s)                               : 6 channels
    Channel layout                           : L R C LFE Ls Rs
    Sampling rate                            : 48.0 kHz
    Frame rate                               : 31.250 FPS (1536 SPF)
    Bit depth                                : 32 bits
    Compression mode                         : Lossy
    Stream size                              : 328 MiB (3%)
    Language                                 : French
    Service kind                             : Complete Main
    Default                                  : No
    Forced                                   : No
    VENDOR_ID                                : [0][0][0][0]

    Audio #8
    ID                                       : 9
    Format                                   : E-AC-3
    Format/Info                              : Enhanced AC-3
    Commercial name                          : Dolby Digital Plus
    Codec ID                                 : A_EAC3
    Duration                                 : 1 h 11 min
    Bit rate mode                            : Constant
    Bit rate                                 : 640 kb/s
    Channel(s)                               : 6 channels
    Channel layout                           : L R C LFE Ls Rs
    Sampling rate                            : 48.0 kHz
    Frame rate                               : 31.250 FPS (1536 SPF)
    Bit depth                                : 32 bits
    Compression mode                         : Lossy
    Stream size                              : 328 MiB (3%)
    Language                                 : Galician
    Service kind                             : Complete Main
    Default                                  : No
    Forced                                   : No
    VENDOR_ID                                : [0][0][0][0]

    Audio #9
    ID                                       : 10
    Format                                   : E-AC-3
    Format/Info                              : Enhanced AC-3
    Commercial name                          : Dolby Digital Plus
    Codec ID                                 : A_EAC3
    Duration                                 : 1 h 11 min
    Bit rate mode                            : Constant
    Bit rate                                 : 640 kb/s
    Channel(s)                               : 6 channels
    Channel layout                           : L R C LFE Ls Rs
    Sampling rate                            : 48.0 kHz
    Frame rate                               : 31.250 FPS (1536 SPF)
    Bit depth                                : 32 bits
    Compression mode                         : Lossy
    Stream size                              : 328 MiB (3%)
    Language                                 : Indonesian
    Service kind                             : Complete Main
    Default                                  : No
    Forced                                   : No
    VENDOR_ID                                : [0][0][0][0]

    Audio #10
    ID                                       : 11
    Format                                   : E-AC-3
    Format/Info                              : Enhanced AC-3
    Commercial name                          : Dolby Digital Plus
    Codec ID                                 : A_EAC3
    Duration                                 : 1 h 11 min
    Bit rate mode                            : Constant
    Bit rate                                 : 640 kb/s
    Channel(s)                               : 6 channels
    Channel layout                           : L R C LFE Ls Rs
    Sampling rate                            : 48.0 kHz
    Frame rate                               : 31.250 FPS (1536 SPF)
    Bit depth                                : 32 bits
    Compression mode                         : Lossy
    Stream size                              : 328 MiB (3%)
    Language                                 : Italian
    Service kind                             : Complete Main
    Default                                  : No
    Forced                                   : No
    VENDOR_ID                                : [0][0][0][0]

    Audio #11
    ID                                       : 12
    Format                                   : E-AC-3
    Format/Info                              : Enhanced AC-3
    Commercial name                          : Dolby Digital Plus
    Codec ID                                 : A_EAC3
    Duration                                 : 1 h 11 min
    Bit rate mode                            : Constant
    Bit rate                                 : 640 kb/s
    Channel(s)                               : 6 channels
    Channel layout                           : L R C LFE Ls Rs
    Sampling rate                            : 48.0 kHz
    Frame rate                               : 31.250 FPS (1536 SPF)
    Bit depth                                : 32 bits
    Compression mode                         : Lossy
    Stream size                              : 328 MiB (3%)
    Language                                 : Hungarian
    Service kind                             : Complete Main
    Default                                  : No
    Forced                                   : No
    VENDOR_ID                                : [0][0][0][0]

    Audio #12
    ID                                       : 13
    Format                                   : E-AC-3
    Format/Info                              : Enhanced AC-3
    Commercial name                          : Dolby Digital Plus
    Codec ID                                 : A_EAC3
    Duration                                 : 1 h 11 min
    Bit rate mode                            : Constant
    Bit rate                                 : 640 kb/s
    Channel(s)                               : 6 channels
    Channel layout                           : L R C LFE Ls Rs
    Sampling rate                            : 48.0 kHz
    Frame rate                               : 31.250 FPS (1536 SPF)
    Bit depth                                : 32 bits
    Compression mode                         : Lossy
    Stream size                              : 328 MiB (3%)
    Language                                 : Dutch
    Service kind                             : Complete Main
    Default                                  : No
    Forced                                   : No
    VENDOR_ID                                : [0][0][0][0]

    Audio #13
    ID                                       : 14
    Format                                   : E-AC-3
    Format/Info                              : Enhanced AC-3
    Commercial name                          : Dolby Digital Plus
    Codec ID                                 : A_EAC3
    Duration                                 : 1 h 11 min
    Bit rate mode                            : Constant
    Bit rate                                 : 640 kb/s
    Channel(s)                               : 6 channels
    Channel layout                           : L R C LFE Ls Rs
    Sampling rate                            : 48.0 kHz
    Frame rate                               : 31.250 FPS (1536 SPF)
    Bit depth                                : 32 bits
    Compression mode                         : Lossy
    Stream size                              : 328 MiB (3%)
    Language                                 : Polish
    Service kind                             : Complete Main
    Default                                  : No
    Forced                                   : No
    VENDOR_ID                                : [0][0][0][0]

    Audio #14
    ID                                       : 15
    Format                                   : E-AC-3
    Format/Info                              : Enhanced AC-3
    Commercial name                          : Dolby Digital Plus
    Codec ID                                 : A_EAC3
    Duration                                 : 1 h 11 min
    Bit rate mode                            : Constant
    Bit rate                                 : 640 kb/s
    Channel(s)                               : 6 channels
    Channel layout                           : L R C LFE Ls Rs
    Sampling rate                            : 48.0 kHz
    Frame rate                               : 31.250 FPS (1536 SPF)
    Bit depth                                : 32 bits
    Compression mode                         : Lossy
    Stream size                              : 328 MiB (3%)
    Language                                 : Portuguese
    Service kind                             : Complete Main
    Default                                  : No
    Forced                                   : No
    VENDOR_ID                                : [0][0][0][0]

    Audio #15
    ID                                       : 16
    Format                                   : E-AC-3
    Format/Info                              : Enhanced AC-3
    Commercial name                          : Dolby Digital Plus
    Codec ID                                 : A_EAC3
    Duration                                 : 1 h 11 min
    Bit rate mode                            : Constant
    Bit rate                                 : 640 kb/s
    Channel(s)                               : 6 channels
    Channel layout                           : L R C LFE Ls Rs
    Sampling rate                            : 48.0 kHz
    Frame rate                               : 31.250 FPS (1536 SPF)
    Bit depth                                : 32 bits
    Compression mode                         : Lossy
    Stream size                              : 328 MiB (3%)
    Language                                 : Romanian
    Service kind                             : Complete Main
    Default                                  : No
    Forced                                   : No
    VENDOR_ID                                : [0][0][0][0]

    Audio #16
    ID                                       : 17
    Format                                   : E-AC-3
    Format/Info                              : Enhanced AC-3
    Commercial name                          : Dolby Digital Plus
    Codec ID                                 : A_EAC3
    Duration                                 : 1 h 11 min
    Bit rate mode                            : Constant
    Bit rate                                 : 640 kb/s
    Channel(s)                               : 6 channels
    Channel layout                           : L R C LFE Ls Rs
    Sampling rate                            : 48.0 kHz
    Frame rate                               : 31.250 FPS (1536 SPF)
    Bit depth                                : 32 bits
    Compression mode                         : Lossy
    Stream size                              : 328 MiB (3%)
    Language                                 : Vietnamese
    Service kind                             : Complete Main
    Default                                  : No
    Forced                                   : No
    VENDOR_ID                                : [0][0][0][0]

    Audio #17
    ID                                       : 18
    Format                                   : E-AC-3
    Format/Info                              : Enhanced AC-3
    Commercial name                          : Dolby Digital Plus
    Codec ID                                 : A_EAC3
    Duration                                 : 1 h 11 min
    Bit rate mode                            : Constant
    Bit rate                                 : 640 kb/s
    Channel(s)                               : 6 channels
    Channel layout                           : L R C LFE Ls Rs
    Sampling rate                            : 48.0 kHz
    Frame rate                               : 31.250 FPS (1536 SPF)
    Bit depth                                : 32 bits
    Compression mode                         : Lossy
    Stream size                              : 328 MiB (3%)
    Language                                 : Turkish
    Service kind                             : Complete Main
    Default                                  : No
    Forced                                   : No
    VENDOR_ID                                : [0][0][0][0]

    Audio #18
    ID                                       : 19
    Format                                   : E-AC-3
    Format/Info                              : Enhanced AC-3
    Commercial name                          : Dolby Digital Plus
    Codec ID                                 : A_EAC3
    Duration                                 : 1 h 11 min
    Bit rate mode                            : Constant
    Bit rate                                 : 640 kb/s
    Channel(s)                               : 6 channels
    Channel layout                           : L R C LFE Ls Rs
    Sampling rate                            : 48.0 kHz
    Frame rate                               : 31.250 FPS (1536 SPF)
    Bit depth                                : 32 bits
    Compression mode                         : Lossy
    Stream size                              : 328 MiB (3%)
    Language                                 : Czech
    Service kind                             : Complete Main
    Default                                  : No
    Forced                                   : No
    VENDOR_ID                                : [0][0][0][0]

    Audio #19
    ID                                       : 20
    Format                                   : E-AC-3
    Format/Info                              : Enhanced AC-3
    Commercial name                          : Dolby Digital Plus
    Codec ID                                 : A_EAC3
    Duration                                 : 1 h 11 min
    Bit rate mode                            : Constant
    Bit rate                                 : 640 kb/s
    Channel(s)                               : 6 channels
    Channel layout                           : L R C LFE Ls Rs
    Sampling rate                            : 48.0 kHz
    Frame rate                               : 31.250 FPS (1536 SPF)
    Bit depth                                : 32 bits
    Compression mode                         : Lossy
    Stream size                              : 328 MiB (3%)
    Language                                 : Greek
    Service kind                             : Complete Main
    Default                                  : No
    Forced                                   : No
    VENDOR_ID                                : [0][0][0][0]

    Audio #20
    ID                                       : 21
    Format                                   : E-AC-3
    Format/Info                              : Enhanced AC-3
    Commercial name                          : Dolby Digital Plus
    Codec ID                                 : A_EAC3
    Duration                                 : 1 h 11 min
    Bit rate mode                            : Constant
    Bit rate                                 : 640 kb/s
    Channel(s)                               : 6 channels
    Channel layout                           : L R C LFE Ls Rs
    Sampling rate                            : 48.0 kHz
    Frame rate                               : 31.250 FPS (1536 SPF)
    Bit depth                                : 32 bits
    Compression mode                         : Lossy
    Stream size                              : 328 MiB (3%)
    Language                                 : Hebrew
    Service kind                             : Complete Main
    Default                                  : No
    Forced                                   : No
    VENDOR_ID                                : [0][0][0][0]

    Audio #21
    ID                                       : 22
    Format                                   : E-AC-3
    Format/Info                              : Enhanced AC-3
    Commercial name                          : Dolby Digital Plus
    Codec ID                                 : A_EAC3
    Duration                                 : 1 h 11 min
    Bit rate mode                            : Constant
    Bit rate                                 : 640 kb/s
    Channel(s)                               : 6 channels
    Channel layout                           : L R C LFE Ls Rs
    Sampling rate                            : 48.0 kHz
    Frame rate                               : 31.250 FPS (1536 SPF)
    Bit depth                                : 32 bits
    Compression mode                         : Lossy
    Stream size                              : 328 MiB (3%)
    Language                                 : Arabic
    Service kind                             : Complete Main
    Default                                  : No
    Forced                                   : No
    VENDOR_ID                                : [0][0][0][0]

    Audio #22
    ID                                       : 23
    Format                                   : E-AC-3
    Format/Info                              : Enhanced AC-3
    Commercial name                          : Dolby Digital Plus
    Codec ID                                 : A_EAC3
    Duration                                 : 1 h 11 min
    Bit rate mode                            : Constant
    Bit rate                                 : 640 kb/s
    Channel(s)                               : 6 channels
    Channel layout                           : L R C LFE Ls Rs
    Sampling rate                            : 48.0 kHz
    Frame rate                               : 31.250 FPS (1536 SPF)
    Bit depth                                : 32 bits
    Compression mode                         : Lossy
    Stream size                              : 328 MiB (3%)
    Language                                 : Hindi
    Service kind                             : Complete Main
    Default                                  : No
    Forced                                   : No
    VENDOR_ID                                : [0][0][0][0]

    Audio #23
    ID                                       : 24
    Format                                   : E-AC-3
    Format/Info                              : Enhanced AC-3
    Commercial name                          : Dolby Digital Plus
    Codec ID                                 : A_EAC3
    Duration                                 : 1 h 11 min
    Bit rate mode                            : Constant
    Bit rate                                 : 640 kb/s
    Channel(s)                               : 6 channels
    Channel layout                           : L R C LFE Ls Rs
    Sampling rate                            : 48.0 kHz
    Frame rate                               : 31.250 FPS (1536 SPF)
    Bit depth                                : 32 bits
    Compression mode                         : Lossy
    Stream size                              : 328 MiB (3%)
    Language                                 : Tamil
    Service kind                             : Complete Main
    Default                                  : No
    Forced                                   : No
    VENDOR_ID                                : [0][0][0][0]

    Audio #24
    ID                                       : 25
    Format                                   : E-AC-3
    Format/Info                              : Enhanced AC-3
    Commercial name                          : Dolby Digital Plus
    Codec ID                                 : A_EAC3
    Duration                                 : 1 h 11 min
    Bit rate mode                            : Constant
    Bit rate                                 : 640 kb/s
    Channel(s)                               : 6 channels
    Channel layout                           : L R C LFE Ls Rs
    Sampling rate                            : 48.0 kHz
    Frame rate                               : 31.250 FPS (1536 SPF)
    Bit depth                                : 32 bits
    Compression mode                         : Lossy
    Stream size                              : 328 MiB (3%)
    Language                                 : Telugu
    Service kind                             : Complete Main
    Default                                  : No
    Forced                                   : No
    VENDOR_ID                                : [0][0][0][0]

    Audio #25
    ID                                       : 26
    Format                                   : E-AC-3
    Format/Info                              : Enhanced AC-3
    Commercial name                          : Dolby Digital Plus
    Codec ID                                 : A_EAC3
    Duration                                 : 1 h 11 min
    Bit rate mode                            : Constant
    Bit rate                                 : 640 kb/s
    Channel(s)                               : 6 channels
    Channel layout                           : L R C LFE Ls Rs
    Sampling rate                            : 48.0 kHz
    Frame rate                               : 31.250 FPS (1536 SPF)
    Bit depth                                : 32 bits
    Compression mode                         : Lossy
    Stream size                              : 328 MiB (3%)
    Language                                 : Kannada
    Service kind                             : Complete Main
    Default                                  : No
    Forced                                   : No
    VENDOR_ID                                : [0][0][0][0]

    Audio #26
    ID                                       : 27
    Format                                   : E-AC-3
    Format/Info                              : Enhanced AC-3
    Commercial name                          : Dolby Digital Plus
    Codec ID                                 : A_EAC3
    Duration                                 : 1 h 11 min
    Bit rate mode                            : Constant
    Bit rate                                 : 640 kb/s
    Channel(s)                               : 6 channels
    Channel layout                           : L R C LFE Ls Rs
    Sampling rate                            : 48.0 kHz
    Frame rate                               : 31.250 FPS (1536 SPF)
    Bit depth                                : 32 bits
    Compression mode                         : Lossy
    Stream size                              : 328 MiB (3%)
    Language                                 : Malayalam
    Service kind                             : Complete Main
    Default                                  : No
    Forced                                   : No
    VENDOR_ID                                : [0][0][0][0]

    Audio #27
    ID                                       : 28
    Format                                   : E-AC-3
    Format/Info                              : Enhanced AC-3
    Commercial name                          : Dolby Digital Plus
    Codec ID                                 : A_EAC3
    Duration                                 : 1 h 11 min
    Bit rate mode                            : Constant
    Bit rate                                 : 640 kb/s
    Channel(s)                               : 6 channels
    Channel layout                           : L R C LFE Ls Rs
    Sampling rate                            : 48.0 kHz
    Frame rate                               : 31.250 FPS (1536 SPF)
    Bit depth                                : 32 bits
    Compression mode                         : Lossy
    Stream size                              : 328 MiB (3%)
    Language                                 : Thai
    Service kind                             : Complete Main
    Default                                  : No
    Forced                                   : No
    VENDOR_ID                                : [0][0][0][0]

    Audio #28
    ID                                       : 29
    Format                                   : E-AC-3
    Format/Info                              : Enhanced AC-3
    Commercial name                          : Dolby Digital Plus
    Codec ID                                 : A_EAC3
    Duration                                 : 1 h 11 min
    Bit rate mode                            : Constant
    Bit rate                                 : 640 kb/s
    Channel(s)                               : 6 channels
    Channel layout                           : L R C LFE Ls Rs
    Sampling rate                            : 48.0 kHz
    Frame rate                               : 31.250 FPS (1536 SPF)
    Bit depth                                : 32 bits
    Compression mode                         : Lossy
    Stream size                              : 328 MiB (3%)
    Language                                 : Japanese
    Service kind                             : Complete Main
    Default                                  : No
    Forced                                   : No
    VENDOR_ID                                : [0][0][0][0]

    Text #1
    ID                                       : 30
    Format                                   : UTF-8
    Codec ID                                 : S_TEXT/UTF8
    Codec ID/Info                            : UTF-8 Plain Text
    Duration                                 : 1 h 1 min
    Writing library                          : Lavc58.134.100 srt
    Language                                 : Malay
    Default                                  : No
    Forced                                   : No

    Text #2
    ID                                       : 31
    Format                                   : UTF-8
    Codec ID                                 : S_TEXT/UTF8
    Codec ID/Info                            : UTF-8 Plain Text
    Duration                                 : 1 h 1 min
    Writing library                          : Lavc58.134.100 srt
    Language                                 : Catalan
    Default                                  : No
    Forced                                   : No

    Text #3
    ID                                       : 32
    Format                                   : UTF-8
    Codec ID                                 : S_TEXT/UTF8
    Codec ID/Info                            : UTF-8 Plain Text
    Duration                                 : 1 h 1 min
    Writing library                          : Lavc58.134.100 srt
    Language                                 : German
    Default                                  : No
    Forced                                   : No

    Text #4
    ID                                       : 33
    Format                                   : UTF-8
    Codec ID                                 : S_TEXT/UTF8
    Codec ID/Info                            : UTF-8 Plain Text
    Duration                                 : 1 h 1 min
    Writing library                          : Lavc58.134.100 srt
    Language                                 : English
    Default                                  : No
    Forced                                   : No

    Text #5
    ID                                       : 34
    Format                                   : UTF-8
    Codec ID                                 : S_TEXT/UTF8
    Codec ID/Info                            : UTF-8 Plain Text
    Duration                                 : 1 h 1 min
    Writing library                          : Lavc58.134.100 srt
    Language                                 : Spanish
    Default                                  : No
    Forced                                   : No

    Text #6
    ID                                       : 35
    Format                                   : UTF-8
    Codec ID                                 : S_TEXT/UTF8
    Codec ID/Info                            : UTF-8 Plain Text
    Duration                                 : 1 h 1 min
    Writing library                          : Lavc58.134.100 srt
    Language                                 : Spanish
    Default                                  : No
    Forced                                   : No

    Text #7
    ID                                       : 36
    Format                                   : UTF-8
    Codec ID                                 : S_TEXT/UTF8
    Codec ID/Info                            : UTF-8 Plain Text
    Duration                                 : 1 h 1 min
    Writing library                          : Lavc58.134.100 srt
    Language                                 : Basque
    Default                                  : No
    Forced                                   : No

    Text #8
    ID                                       : 37
    Format                                   : UTF-8
    Codec ID                                 : S_TEXT/UTF8
    Codec ID/Info                            : UTF-8 Plain Text
    Duration                                 : 1 h 1 min
    Writing library                          : Lavc58.134.100 srt
    Default                                  : No
    Forced                                   : No

    Text #9
    ID                                       : 38
    Format                                   : UTF-8
    Codec ID                                 : S_TEXT/UTF8
    Codec ID/Info                            : UTF-8 Plain Text
    Duration                                 : 1 h 1 min
    Writing library                          : Lavc58.134.100 srt
    Language                                 : French
    Default                                  : No
    Forced                                   : No

    Text #10
    ID                                       : 39
    Format                                   : UTF-8
    Codec ID                                 : S_TEXT/UTF8
    Codec ID/Info                            : UTF-8 Plain Text
    Duration                                 : 1 h 1 min
    Writing library                          : Lavc58.134.100 srt
    Language                                 : French
    Default                                  : No
    Forced                                   : No

    Text #11
    ID                                       : 40
    Format                                   : UTF-8
    Codec ID                                 : S_TEXT/UTF8
    Codec ID/Info                            : UTF-8 Plain Text
    Duration                                 : 1 h 1 min
    Writing library                          : Lavc58.134.100 srt
    Language                                 : Galician
    Default                                  : No
    Forced                                   : No

    Text #12
    ID                                       : 41
    Format                                   : UTF-8
    Codec ID                                 : S_TEXT/UTF8
    Codec ID/Info                            : UTF-8 Plain Text
    Duration                                 : 1 h 1 min
    Writing library                          : Lavc58.134.100 srt
    Language                                 : Indonesian
    Default                                  : No
    Forced                                   : No

    Text #13
    ID                                       : 42
    Format                                   : UTF-8
    Codec ID                                 : S_TEXT/UTF8
    Codec ID/Info                            : UTF-8 Plain Text
    Duration                                 : 1 h 1 min
    Writing library                          : Lavc58.134.100 srt
    Language                                 : Italian
    Default                                  : No
    Forced                                   : No

    Text #14
    ID                                       : 43
    Format                                   : UTF-8
    Codec ID                                 : S_TEXT/UTF8
    Codec ID/Info                            : UTF-8 Plain Text
    Duration                                 : 1 h 1 min
    Writing library                          : Lavc58.134.100 srt
    Language                                 : Hungarian
    Default                                  : No
    Forced                                   : No

    Text #15
    ID                                       : 44
    Format                                   : UTF-8
    Codec ID                                 : S_TEXT/UTF8
    Codec ID/Info                            : UTF-8 Plain Text
    Duration                                 : 1 h 1 min
    Writing library                          : Lavc58.134.100 srt
    Language                                 : Dutch
    Default                                  : No
    Forced                                   : No

    Text #16
    ID                                       : 45
    Format                                   : UTF-8
    Codec ID                                 : S_TEXT/UTF8
    Codec ID/Info                            : UTF-8 Plain Text
    Duration                                 : 1 h 1 min
    Writing library                          : Lavc58.134.100 srt
    Language                                 : Polish
    Default                                  : No
    Forced                                   : No

    Text #17
    ID                                       : 46
    Format                                   : UTF-8
    Codec ID                                 : S_TEXT/UTF8
    Codec ID/Info                            : UTF-8 Plain Text
    Duration                                 : 1 h 1 min
    Writing library                          : Lavc58.134.100 srt
    Language                                 : Portuguese
    Default                                  : No
    Forced                                   : No

    Text #18
    ID                                       : 47
    Format                                   : UTF-8
    Codec ID                                 : S_TEXT/UTF8
    Codec ID/Info                            : UTF-8 Plain Text
    Duration                                 : 1 h 1 min
    Writing library                          : Lavc58.134.100 srt
    Language                                 : Portuguese
    Default                                  : No
    Forced                                   : No

    Text #19
    ID                                       : 48
    Format                                   : UTF-8
    Codec ID                                 : S_TEXT/UTF8
    Codec ID/Info                            : UTF-8 Plain Text
    Duration                                 : 1 h 1 min
    Writing library                          : Lavc58.134.100 srt
    Language                                 : Romanian
    Default                                  : No
    Forced                                   : No

    Text #20
    ID                                       : 49
    Format                                   : UTF-8
    Codec ID                                 : S_TEXT/UTF8
    Codec ID/Info                            : UTF-8 Plain Text
    Duration                                 : 1 h 1 min
    Writing library                          : Lavc58.134.100 srt
    Language                                 : Vietnamese
    Default                                  : No
    Forced                                   : No

    Text #21
    ID                                       : 50
    Format                                   : UTF-8
    Codec ID                                 : S_TEXT/UTF8
    Codec ID/Info                            : UTF-8 Plain Text
    Duration                                 : 1 h 1 min
    Writing library                          : Lavc58.134.100 srt
    Language                                 : Turkish
    Default                                  : No
    Forced                                   : No

    Text #22
    ID                                       : 51
    Format                                   : UTF-8
    Codec ID                                 : S_TEXT/UTF8
    Codec ID/Info                            : UTF-8 Plain Text
    Duration                                 : 1 h 1 min
    Writing library                          : Lavc58.134.100 srt
    Language                                 : Czech
    Default                                  : Yes
    Forced                                   : No

    Text #23
    ID                                       : 52
    Format                                   : UTF-8
    Codec ID                                 : S_TEXT/UTF8
    Codec ID/Info                            : UTF-8 Plain Text
    Duration                                 : 1 h 1 min
    Writing library                          : Lavc58.134.100 srt
    Language                                 : Greek
    Default                                  : No
    Forced                                   : No

    Text #24
    ID                                       : 53
    Format                                   : UTF-8
    Codec ID                                 : S_TEXT/UTF8
    Codec ID/Info                            : UTF-8 Plain Text
    Duration                                 : 1 h 1 min
    Writing library                          : Lavc58.134.100 srt
    Language                                 : Hebrew
    Default                                  : No
    Forced                                   : No

    Text #25
    ID                                       : 54
    Format                                   : UTF-8
    Codec ID                                 : S_TEXT/UTF8
    Codec ID/Info                            : UTF-8 Plain Text
    Duration                                 : 1 h 1 min
    Writing library                          : Lavc58.134.100 srt
    Language                                 : Arabic
    Default                                  : No
    Forced                                   : No

    Text #26
    ID                                       : 55
    Format                                   : UTF-8
    Codec ID                                 : S_TEXT/UTF8
    Codec ID/Info                            : UTF-8 Plain Text
    Duration                                 : 1 h 1 min
    Writing library                          : Lavc58.134.100 srt
    Language                                 : Hindi
    Default                                  : No
    Forced                                   : No

    Text #27
    ID                                       : 56
    Format                                   : UTF-8
    Codec ID                                 : S_TEXT/UTF8
    Codec ID/Info                            : UTF-8 Plain Text
    Duration                                 : 1 h 1 min
    Writing library                          : Lavc58.134.100 srt
    Language                                 : Tamil
    Default                                  : No
    Forced                                   : No

    Text #28
    ID                                       : 57
    Format                                   : UTF-8
    Codec ID                                 : S_TEXT/UTF8
    Codec ID/Info                            : UTF-8 Plain Text
    Duration                                 : 1 h 1 min
    Writing library                          : Lavc58.134.100 srt
    Language                                 : Telugu
    Default                                  : No
    Forced                                   : No

    Text #29
    ID                                       : 58
    Format                                   : UTF-8
    Codec ID                                 : S_TEXT/UTF8
    Codec ID/Info                            : UTF-8 Plain Text
    Duration                                 : 1 h 1 min
    Writing library                          : Lavc58.134.100 srt
    Language                                 : Kannada
    Default                                  : No
    Forced                                   : No

    Text #30
    ID                                       : 59
    Format                                   : UTF-8
    Codec ID                                 : S_TEXT/UTF8
    Codec ID/Info                            : UTF-8 Plain Text
    Duration                                 : 1 h 1 min
    Writing library                          : Lavc58.134.100 srt
    Language                                 : Malayalam
    Default                                  : No
    Forced                                   : No

    Text #31
    ID                                       : 60
    Format                                   : UTF-8
    Codec ID                                 : S_TEXT/UTF8
    Codec ID/Info                            : UTF-8 Plain Text
    Duration                                 : 1 h 1 min
    Writing library                          : Lavc58.134.100 srt
    Language                                 : Thai
    Default                                  : No
    Forced                                   : No

    Text #32
    ID                                       : 61
    Format                                   : UTF-8
    Codec ID                                 : S_TEXT/UTF8
    Codec ID/Info                            : UTF-8 Plain Text
    Duration                                 : 1 h 1 min
    Writing library                          : Lavc58.134.100 srt
    Language                                 : Japanese
    Default                                  : No
    Forced                                   : No










    Boethius,

    + Pridaj vlastnu verziu tohto torrentu +


    Upozornenie:
    Ziadny zo zobrazených súborov sa nenachádza na tomto serveri. Server slúzi len k síreniu vlastnorucne vytvorených aplikácií, videí, hudby ai. Autori stránok nenesú ziadnu zodpovednost za zverejnené odkazy, komentáre a obsah súborov. Vsetky komentáre, odkazy, súbory ktoré by svojou povahou mohli byt v rozpore zo zákonmi sem vkladáte na vlastnú zodpovednost. Autori stránok si vyhradzujú právo cenzúry odkazov, komentárov príp. súborov, ktoré by svojou povahou mohli byt v rozpore zo zákonmi a dobrými mravmi. Dodrzujte pravidlá!


    No comments...


    Back

    Na serveru se nenalézají zádne soubory. Za odkazy jsou výhradně zodpovědní uzivatelé a návstěvníci tohoto trackeru. Administrátor není zodpovědný za pridaný obsah ani za skody zpusobené uzivateli. Rozsirovat stránku nebo její obsah bez souhlasu ownera je zakázano. Nesmíte pouzívat tuto webovou stránku pro distribuovaní nebo download zádného materiálu pokud nemáte povolení od príslusného vlastníka práv. Uzivatelé jsou zodpovědní za dodrzování těchto pravidel a podmínek. Owner má právo kdykoliv změnit pravidla tohoto trackeru.

    [ Script trval: 0.039 sec. ] - [ GZIP: enabled ]
    Je zhruba 19:27
    memcache

    TOPlist