Tvoj účet nieje VIP.
Preto sú tvoje funkcie a možnosti značne obmedzené.
Pre aktiváciu VIP klikni sem.

Pan prstenu: Spolocenstvo Prstenu / The Lord of the Rings: The Fellowship of the Ring (2001)(FHD)(1080p)(WebDl)(Hevc)(AAC 2.0 - CZ+ Multi 10 lang)(MultiSub) = CSFD 91% | SkTorrent.eu

Cz-SkTorrent open Tracker, na volné zdielanie súborov. Pridajte sa k nasej komunite a získajte pristup k tisícom torrentov.

  • vysoká rýchlost
  • úplne zdarma
  • prevazne Slovenska a Ceska scena
  • ste tu s nami uz 5 rokov - Dakujeme
  • Vitaj Guest (Login) Ako stahovat
    torrenty?
    Torrenty:
    v1 textová
    v2 obrázková
    v3 online filmy
    Ako sa stat
    Uploaderom
    Online
    Filmy
    Forum
    Pravidlá
    BitTorrent
    klient
    Meno: Heslo:
    Zaregistrovat
    Po zaregistrovaní mozte volne stahovat
    Zabudol som heslo

    Torrent's details
    Pan prstenu: Spolocenstvo Prstenu / The Lord of the Rings: The Fellowship of the Ring (2001)(FHD)(1080p)(WebDl)(Hevc)(AAC 2.0 - CZ+ Multi 10 lang)(MultiSub) = CSFD 91% Názov:Pan prstenu: Spolocenstvo Prstenu / The Lord of the Rings: The Fellowship of the Ring (2001)(FHD)(1080p)(WebDl)(Hevc)(AAC 2.0 - CZ+ Multi 10 lang)(MultiSub) = CSFD 91% Hodnocení:N/A Stiahnut
    Pozriet Online
    Kategória:HD Filmy Velikost:4.4 GB BitTorrent klient
    Pridaný: Súbory:
    Skontrolován:2022-09-19 Peerov:5 (Seed: 5, Leech: 0)
    Zaner:Akcni,Dobrodruzny,Fantasy Uploader:Uvidis, az ked budes
    VIP
    Kúp nám Pivo 1,10€

    Kúp nám Pivo
    Podporte nas na Facebooku !
    Pridaj do zalozky
    Pridaj do zalozky






    [center]





    Movie Name: The Lord of the Rings - The Fellowship of the Ring (2001)
    IMDb Rating: 8.8/10

    Quality: 1080p (WebDL)
    Language: AAC 2.0 - Germany, English , Spanish, Italian , Portuguese , French , Hungarian , Polish , Czech , Japanese , Turkish
    Subtitles: Multi 32+
    Director: Peter Jackson
    Writers: J.R.R. Tolkien (novel "The Fellowship of the Ring") Fran Walsh (screenplay) Philippa Boyens (screenplay)
    Genres: Action | Adventure | Drama |


    A meek Hobbit from the Shire and eight companions set out on a journey to destroy the powerful One Ring and save Middle-earth from the Dark Lord Sauron.




    [/center]

    Format                                   : MPEG-4
    Format profile                           : Base Media
    Codec ID                                 : isom (isom/iso2/mp41)
    File size                                : 4.41 GiB
    Duration                                 : 2 h 58 min
    Overall bit rate mode                    : Variable
    Overall bit rate                         : 3 541 kb/s
    Collection                               : Pán prstenů: Společenstvo Prstenu
    Track name                               : Pán prstenů: Společenstvo Prstenu
    Description                              : V prvním díle trilogie Pán Prstenů zdědí stydlivý mladý hobit jménem Frodo Pytlík obyčejný zlatý prsten, který v sobě ukrývá klíč k přežití – nebo záhubě – celého světa.
    Recorded date                            : 2001
    Writing application                      : Lavf58.76.100
    Cover                                    : Yes

    Video
    ID                                       : 1
    Format                                   : HEVC
    Format/Info                              : High Efficiency Video Coding
    Format profile                           : Main@L4@Main
    Codec ID                                 : hev1
    Codec ID/Info                            : High Efficiency Video Coding
    Duration                                 : 2 h 58 min
    Bit rate                                 : 2 210 kb/s
    Width                                    : 1 920 pixels
    Height                                   : 800 pixels
    Display aspect ratio                     : 2.40:1
    Frame rate mode                          : Constant
    Frame rate                               : 23.976 (24000/1001) FPS
    Standard                                 : NTSC
    Color space                              : YUV
    Chroma subsampling                       : 4:2:0
    Bit depth                                : 8 bits
    Bits/(Pixel*Frame)                       : 0.060
    Stream size                              : 2.75 GiB (62%)
    Color range                              : Limited
    Color primaries                          : BT.709
    Transfer characteristics                 : BT.709
    Matrix coefficients                      : BT.709
    Codec configuration box                  : hvcC

    Audio #1
    ID                                       : 3
    Format                                   : AAC LC
    Format/Info                              : Advanced Audio Codec Low Complexity
    Codec ID                                 : mp4a-40-2
    Duration                                 : 2 h 58 min
    Bit rate mode                            : Constant
    Bit rate                                 : 128 kb/s
    Channel(s)                               : 2 channels
    Channel layout                           : L R
    Sampling rate                            : 48.0 kHz
    Frame rate                               : 46.875 FPS (1024 SPF)
    Compression mode                         : Lossy
    Stream size                              : 163 MiB (4%)
    Language                                 : English
    Default                                  : Yes
    Alternate group                          : 2

    Audio #2
    ID                                       : 4
    Format                                   : AAC LC
    Format/Info                              : Advanced Audio Codec Low Complexity
    Codec ID                                 : mp4a-40-2
    Duration                                 : 2 h 58 min
    Bit rate mode                            : Constant
    Bit rate                                 : 128 kb/s
    Channel(s)                               : 2 channels
    Channel layout                           : L R
    Sampling rate                            : 48.0 kHz
    Frame rate                               : 46.875 FPS (1024 SPF)
    Compression mode                         : Lossy
    Stream size                              : 163 MiB (4%)
    Language                                 : Spanish
    Default                                  : Yes
    Alternate group                          : 3

    Audio #3
    ID                                       : 5
    Format                                   : AAC LC
    Format/Info                              : Advanced Audio Codec Low Complexity
    Codec ID                                 : mp4a-40-2
    Duration                                 : 2 h 58 min
    Bit rate mode                            : Constant
    Bit rate                                 : 128 kb/s
    Channel(s)                               : 2 channels
    Channel layout                           : L R
    Sampling rate                            : 48.0 kHz
    Frame rate                               : 46.875 FPS (1024 SPF)
    Compression mode                         : Lossy
    Stream size                              : 163 MiB (4%)
    Language                                 : French
    Default                                  : Yes
    Alternate group                          : 4

    Audio #4
    ID                                       : 6
    Format                                   : AAC LC
    Format/Info                              : Advanced Audio Codec Low Complexity
    Codec ID                                 : mp4a-40-2
    Duration                                 : 2 h 58 min
    Bit rate mode                            : Constant
    Bit rate                                 : 128 kb/s
    Channel(s)                               : 2 channels
    Channel layout                           : L R
    Sampling rate                            : 48.0 kHz
    Frame rate                               : 46.875 FPS (1024 SPF)
    Compression mode                         : Lossy
    Stream size                              : 163 MiB (4%)
    Language                                 : Italian
    Default                                  : Yes
    Alternate group                          : 5

    Audio #5
    ID                                       : 7
    Format                                   : AAC LC
    Format/Info                              : Advanced Audio Codec Low Complexity
    Codec ID                                 : mp4a-40-2
    Duration                                 : 2 h 58 min
    Bit rate mode                            : Constant
    Bit rate                                 : 128 kb/s
    Channel(s)                               : 2 channels
    Channel layout                           : L R
    Sampling rate                            : 48.0 kHz
    Frame rate                               : 46.875 FPS (1024 SPF)
    Compression mode                         : Lossy
    Stream size                              : 163 MiB (4%)
    Language                                 : Hungarian
    Default                                  : Yes
    Alternate group                          : 6

    Audio #6
    ID                                       : 8
    Format                                   : AAC LC
    Format/Info                              : Advanced Audio Codec Low Complexity
    Codec ID                                 : mp4a-40-2
    Duration                                 : 2 h 58 min
    Bit rate mode                            : Constant
    Bit rate                                 : 128 kb/s
    Channel(s)                               : 2 channels
    Channel layout                           : L R
    Sampling rate                            : 48.0 kHz
    Frame rate                               : 46.875 FPS (1024 SPF)
    Compression mode                         : Lossy
    Stream size                              : 163 MiB (4%)
    Language                                 : Polish
    Default                                  : Yes
    Alternate group                          : 7

    Audio #7
    ID                                       : 9
    Format                                   : AAC LC
    Format/Info                              : Advanced Audio Codec Low Complexity
    Codec ID                                 : mp4a-40-2
    Duration                                 : 2 h 58 min
    Bit rate mode                            : Constant
    Bit rate                                 : 128 kb/s
    Channel(s)                               : 2 channels
    Channel layout                           : L R
    Sampling rate                            : 48.0 kHz
    Frame rate                               : 46.875 FPS (1024 SPF)
    Compression mode                         : Lossy
    Stream size                              : 163 MiB (4%)
    Language                                 : Portuguese
    Default                                  : Yes
    Alternate group                          : 8

    Audio #8
    ID                                       : 10
    Format                                   : AAC LC
    Format/Info                              : Advanced Audio Codec Low Complexity
    Codec ID                                 : mp4a-40-2
    Duration                                 : 2 h 58 min
    Bit rate mode                            : Constant
    Bit rate                                 : 128 kb/s
    Channel(s)                               : 2 channels
    Channel layout                           : L R
    Sampling rate                            : 48.0 kHz
    Frame rate                               : 46.875 FPS (1024 SPF)
    Compression mode                         : Lossy
    Stream size                              : 163 MiB (4%)
    Language                                 : Turkish
    Default                                  : Yes
    Alternate group                          : 9

    Audio #9
    ID                                       : 11
    Format                                   : AAC LC
    Format/Info                              : Advanced Audio Codec Low Complexity
    Codec ID                                 : mp4a-40-2
    Duration                                 : 2 h 58 min
    Bit rate mode                            : Constant
    Bit rate                                 : 128 kb/s
    Channel(s)                               : 2 channels
    Channel layout                           : L R
    Sampling rate                            : 48.0 kHz
    Frame rate                               : 46.875 FPS (1024 SPF)
    Compression mode                         : Lossy
    Stream size                              : 163 MiB (4%)
    Language                                 : Czech
    Default                                  : Yes
    Alternate group                          : 10

    Audio #10
    ID                                       : 12
    Format                                   : AAC LC
    Format/Info                              : Advanced Audio Codec Low Complexity
    Codec ID                                 : mp4a-40-2
    Duration                                 : 2 h 58 min
    Bit rate mode                            : Constant
    Bit rate                                 : 128 kb/s
    Channel(s)                               : 2 channels
    Channel layout                           : L R
    Sampling rate                            : 48.0 kHz
    Frame rate                               : 46.875 FPS (1024 SPF)
    Compression mode                         : Lossy
    Stream size                              : 163 MiB (4%)
    Language                                 : Japanese
    Default                                  : Yes
    Alternate group                          : 11

    Text #1
    ID                                       : 13
    Format                                   : Timed Text
    Muxing mode                              : sbtl
    Codec ID                                 : tx3g
    Duration                                 : 14 min 6 s
    Bit rate mode                            : Variable
    Bit rate                                 : 7 b/s
    Stream size                              : 788 Bytes (0%)
    Language                                 : Spanish
    Default                                  : No
    Forced                                   : No
    Alternate group                          : 12

    Text #2
    ID                                       : 14
    Format                                   : Timed Text
    Muxing mode                              : sbtl
    Codec ID                                 : tx3g
    Duration                                 : 52 s 763 ms
    Bit rate mode                            : Variable
    Bit rate                                 : 105 b/s
    Stream size                              : 694 Bytes (0%)
    Language                                 : Spanish
    Default                                  : No
    Forced                                   : No
    Alternate group                          : 13

    Text #3
    ID                                       : 15
    Format                                   : Timed Text
    Muxing mode                              : sbtl
    Codec ID                                 : tx3g
    Duration                                 : 12 min 21 s
    Bit rate mode                            : Variable
    Bit rate                                 : 8 b/s
    Stream size                              : 695 Bytes (0%)
    Language                                 : French
    Default                                  : No
    Forced                                   : No
    Alternate group                          : 14

    Text #4
    ID                                       : 16
    Format                                   : Timed Text
    Muxing mode                              : sbtl
    Codec ID                                 : tx3g
    Duration                                 : 10 min 18 s
    Bit rate mode                            : Variable
    Bit rate                                 : 9 b/s
    Stream size                              : 722 Bytes (0%)
    Language                                 : Italian
    Default                                  : No
    Forced                                   : No
    Alternate group                          : 15

    Text #5
    ID                                       : 17
    Format                                   : Timed Text
    Muxing mode                              : sbtl
    Codec ID                                 : tx3g
    Duration                                 : 14 min 14 s
    Bit rate mode                            : Variable
    Bit rate                                 : 9 b/s
    Stream size                              : 917 Bytes (0%)
    Language                                 : Hungarian
    Default                                  : No
    Forced                                   : No
    Alternate group                          : 16

    Text #6
    ID                                       : 18
    Format                                   : Timed Text
    Muxing mode                              : sbtl
    Codec ID                                 : tx3g
    Duration                                 : 14 min 10 s
    Bit rate mode                            : Variable
    Bit rate                                 : 7 b/s
    Stream size                              : 739 Bytes (0%)
    Language                                 : Polish
    Default                                  : No
    Forced                                   : No
    Alternate group                          : 17

    Text #7
    ID                                       : 19
    Format                                   : Timed Text
    Muxing mode                              : sbtl
    Codec ID                                 : tx3g
    Duration                                 : 14 min 9 s
    Bit rate mode                            : Variable
    Bit rate                                 : 8 b/s
    Stream size                              : 797 Bytes (0%)
    Language                                 : Portuguese
    Default                                  : No
    Forced                                   : No
    Alternate group                          : 18

    Text #8
    ID                                       : 20
    Format                                   : Timed Text
    Muxing mode                              : sbtl
    Codec ID                                 : tx3g
    Duration                                 : 13 min 22 s
    Bit rate mode                            : Variable
    Bit rate                                 : 1 b/s
    Stream size                              : 127 Bytes (0%)
    Language                                 : Turkish
    Default                                  : No
    Forced                                   : No
    Alternate group                          : 19

    Text #9
    ID                                       : 21
    Format                                   : Timed Text
    Muxing mode                              : sbtl
    Codec ID                                 : tx3g
    Duration                                 : 14 min 7 s
    Bit rate mode                            : Variable
    Bit rate                                 : 7 b/s
    Stream size                              : 785 Bytes (0%)
    Language                                 : Czech
    Default                                  : Yes
    Forced                                   : No
    Alternate group                          : 20

    Text #10
    ID                                       : 22
    Format                                   : Timed Text
    Muxing mode                              : sbtl
    Codec ID                                 : tx3g
    Duration                                 : 18 min 53 s
    Bit rate mode                            : Variable
    Bit rate                                 : 21 b/s
    Stream size                              : 2.91 KiB (0%)
    Language                                 : Japanese
    Default                                  : No
    Forced                                   : No
    Alternate group                          : 21

    Text #11
    ID                                       : 23
    Format                                   : Timed Text
    Muxing mode                              : sbtl
    Codec ID                                 : tx3g
    Duration                                 : 2 h 58 min
    Bit rate mode                            : Variable
    Bit rate                                 : 37 b/s
    Stream size                              : 48.4 KiB (0%)
    Language                                 : Danish
    Default                                  : No
    Forced                                   : No
    Alternate group                          : 22

    Text #12
    ID                                       : 24
    Format                                   : Timed Text
    Muxing mode                              : sbtl
    Codec ID                                 : tx3g
    Duration                                 : 2 h 57 min
    Bit rate mode                            : Variable
    Bit rate                                 : 49 b/s
    Stream size                              : 64.3 KiB (0%)
    Language                                 : English
    Default                                  : No
    Forced                                   : No
    Alternate group                          : 23

    Text #13
    ID                                       : 25
    Format                                   : Timed Text
    Muxing mode                              : sbtl
    Codec ID                                 : tx3g
    Duration                                 : 2 h 50 min
    Bit rate mode                            : Variable
    Bit rate                                 : 40 b/s
    Stream size                              : 50.4 KiB (0%)
    Language                                 : Spanish
    Default                                  : No
    Forced                                   : No
    Alternate group                          : 24

    Text #14
    ID                                       : 26
    Format                                   : Timed Text
    Muxing mode                              : sbtl
    Codec ID                                 : tx3g
    Duration                                 : 2 h 57 min
    Bit rate mode                            : Variable
    Bit rate                                 : 38 b/s
    Stream size                              : 49.9 KiB (0%)
    Language                                 : Spanish
    Default                                  : No
    Forced                                   : No
    Alternate group                          : 25

    Text #15
    ID                                       : 27
    Format                                   : Timed Text
    Muxing mode                              : sbtl
    Codec ID                                 : tx3g
    Duration                                 : 2 h 57 min
    Bit rate mode                            : Variable
    Bit rate                                 : 38 b/s
    Stream size                              : 49.9 KiB (0%)
    Language                                 : Spanish
    Default                                  : No
    Forced                                   : No
    Alternate group                          : 26

    Text #16
    ID                                       : 28
    Format                                   : Timed Text
    Muxing mode                              : sbtl
    Codec ID                                 : tx3g
    Duration                                 : 2 h 58 min
    Bit rate mode                            : Variable
    Bit rate                                 : 36 b/s
    Stream size                              : 47.3 KiB (0%)
    Language                                 : French
    Default                                  : No
    Forced                                   : No
    Alternate group                          : 27

    Text #17
    ID                                       : 29
    Format                                   : Timed Text
    Muxing mode                              : sbtl
    Codec ID                                 : tx3g
    Duration                                 : 2 h 57 min
    Bit rate mode                            : Variable
    Bit rate                                 : 38 b/s
    Stream size                              : 49.1 KiB (0%)
    Language                                 : Italian
    Default                                  : No
    Forced                                   : No
    Alternate group                          : 28

    Text #18
    ID                                       : 30
    Format                                   : Timed Text
    Muxing mode                              : sbtl
    Codec ID                                 : tx3g
    Duration                                 : 2 h 57 min
    Bit rate mode                            : Variable
    Bit rate                                 : 38 b/s
    Stream size                              : 49.1 KiB (0%)
    Language                                 : Italian
    Default                                  : No
    Forced                                   : No
    Alternate group                          : 29

    Text #19
    ID                                       : 31
    Format                                   : Timed Text
    Muxing mode                              : sbtl
    Codec ID                                 : tx3g
    Duration                                 : 2 h 58 min
    Bit rate mode                            : Variable
    Bit rate                                 : 35 b/s
    Stream size                              : 46.1 KiB (0%)
    Language                                 : Hungarian
    Default                                  : No
    Forced                                   : No
    Alternate group                          : 30

    Text #20
    ID                                       : 32
    Format                                   : Timed Text
    Muxing mode                              : sbtl
    Codec ID                                 : tx3g
    Duration                                 : 2 h 50 min
    Bit rate mode                            : Variable
    Bit rate                                 : 39 b/s
    Stream size                              : 48.3 KiB (0%)
    Language                                 : Dutch
    Default                                  : No
    Forced                                   : No
    Alternate group                          : 31

    Text #21
    ID                                       : 33
    Format                                   : Timed Text
    Muxing mode                              : sbtl
    Codec ID                                 : tx3g
    Duration                                 : 2 h 58 min
    Bit rate mode                            : Variable
    Bit rate                                 : 38 b/s
    Stream size                              : 49.1 KiB (0%)
    Language                                 : Norwegian Nynorsk
    Default                                  : No
    Forced                                   : No
    Alternate group                          : 32

    Text #22
    ID                                       : 34
    Format                                   : Timed Text
    Muxing mode                              : sbtl
    Codec ID                                 : tx3g
    Duration                                 : 2 h 58 min
    Bit rate mode                            : Variable
    Bit rate                                 : 31 b/s
    Stream size                              : 40.3 KiB (0%)
    Language                                 : Polish
    Default                                  : No
    Forced                                   : No
    Alternate group                          : 33

    Text #23
    ID                                       : 35
    Format                                   : Timed Text
    Muxing mode                              : sbtl
    Codec ID                                 : tx3g
    Duration                                 : 2 h 58 min
    Bit rate mode                            : Variable
    Bit rate                                 : 39 b/s
    Stream size                              : 51.1 KiB (0%)
    Language                                 : Portuguese
    Default                                  : No
    Forced                                   : No
    Alternate group                          : 34

    Text #24
    ID                                       : 36
    Format                                   : Timed Text
    Muxing mode                              : sbtl
    Codec ID                                 : tx3g
    Duration                                 : 2 h 58 min
    Bit rate mode                            : Variable
    Bit rate                                 : 39 b/s
    Stream size                              : 51.1 KiB (0%)
    Language                                 : Portuguese
    Default                                  : No
    Forced                                   : No
    Alternate group                          : 35

    Text #25
    ID                                       : 37
    Format                                   : Timed Text
    Muxing mode                              : sbtl
    Codec ID                                 : tx3g
    Duration                                 : 2 h 58 min
    Bit rate mode                            : Variable
    Bit rate                                 : 38 b/s
    Stream size                              : 50.1 KiB (0%)
    Language                                 : Portuguese
    Default                                  : No
    Forced                                   : No
    Alternate group                          : 36

    Text #26
    ID                                       : 38
    Format                                   : Timed Text
    Muxing mode                              : sbtl
    Codec ID                                 : tx3g
    Duration                                 : 2 h 57 min
    Bit rate mode                            : Variable
    Bit rate                                 : 41 b/s
    Stream size                              : 53.2 KiB (0%)
    Language                                 : Romanian
    Default                                  : No
    Forced                                   : No
    Alternate group                          : 37

    Text #27
    ID                                       : 39
    Format                                   : Timed Text
    Muxing mode                              : sbtl
    Codec ID                                 : tx3g
    Duration                                 : 2 h 58 min
    Bit rate mode                            : Variable
    Bit rate                                 : 38 b/s
    Stream size                              : 49.0 KiB (0%)
    Language                                 : Finnish
    Default                                  : No
    Forced                                   : No
    Alternate group                          : 38

    Text #28
    ID                                       : 40
    Format                                   : Timed Text
    Muxing mode                              : sbtl
    Codec ID                                 : tx3g
    Duration                                 : 2 h 58 min
    Bit rate mode                            : Variable
    Bit rate                                 : 37 b/s
    Stream size                              : 48.2 KiB (0%)
    Language                                 : Swedish
    Default                                  : No
    Forced                                   : No
    Alternate group                          : 39

    Text #29
    ID                                       : 41
    Format                                   : Timed Text
    Muxing mode                              : sbtl
    Codec ID                                 : tx3g
    Duration                                 : 2 h 58 min
    Bit rate mode                            : Variable
    Bit rate                                 : 38 b/s
    Stream size                              : 49.2 KiB (0%)
    Language                                 : Turkish
    Default                                  : No
    Forced                                   : No
    Alternate group                          : 40

    Text #30
    ID                                       : 42
    Format                                   : Timed Text
    Muxing mode                              : sbtl
    Codec ID                                 : tx3g
    Duration                                 : 2 h 58 min
    Bit rate mode                            : Variable
    Bit rate                                 : 36 b/s
    Stream size                              : 47.0 KiB (0%)
    Language                                 : Czech
    Default                                  : No
    Forced                                   : No
    Alternate group                          : 41

    Text #31
    ID                                       : 43
    Format                                   : Timed Text
    Muxing mode                              : sbtl
    Codec ID                                 : tx3g
    Duration                                 : 2 h 58 min
    Bit rate mode                            : Variable
    Bit rate                                 : 65 b/s
    Stream size                              : 84.9 KiB (0%)
    Language                                 : Greek
    Default                                  : No
    Forced                                   : No
    Alternate group                          : 42

    Text #32
    ID                                       : 44
    Format                                   : Timed Text
    Muxing mode                              : sbtl
    Codec ID                                 : tx3g
    Duration                                 : 2 h 57 min
    Bit rate mode                            : Variable
    Bit rate                                 : 39 b/s
    Stream size                              : 50.0 KiB (0%)
    Language                                 : Japanese
    Default                                  : No
    Forced                                   : No
    Alternate group                          : 4









    Upozornenie:
    Ziadny zo zobrazených súborov sa nenachádza na tomto serveri. Server slúzi len k síreniu vlastnorucne vytvorených aplikácií, videí, hudby ai. Autori stránok nenesú ziadnu zodpovednost za zverejnené odkazy, komentáre a obsah súborov. Vsetky komentáre, odkazy, súbory ktoré by svojou povahou mohli byt v rozpore zo zákonmi sem vkladáte na vlastnú zodpovednost. Autori stránok si vyhradzujú právo cenzúry odkazov, komentárov príp. súborov, ktoré by svojou povahou mohli byt v rozpore zo zákonmi a dobrými mravmi. Dodrzujte pravidlá!


    No comments...


    Back

    Na serveru se nenalézají zádne soubory. Za odkazy jsou výhradně zodpovědní uzivatelé a návstěvníci tohoto trackeru. Administrátor není zodpovědný za pridaný obsah ani za skody zpusobené uzivateli. Rozsirovat stránku nebo její obsah bez souhlasu ownera je zakázano. Nesmíte pouzívat tuto webovou stránku pro distribuovaní nebo download zádného materiálu pokud nemáte povolení od príslusného vlastníka práv. Uzivatelé jsou zodpovědní za dodrzování těchto pravidel a podmínek. Owner má právo kdykoliv změnit pravidla tohoto trackeru.

    [ Script trval: 0.114 sec. ] - [ GZIP: enabled ]
    Je zhruba 19:26
    sql

    TOPlist