Tvoj účet nieje VIP.
Preto sú tvoje funkcie a možnosti značne obmedzené.
Pre aktiváciu VIP klikni sem.

Pan prstenu: Spolocenstvo Prstenu / The Lord of the Rings: The Fellowship of the Ring - EXTENDED (2001)(CZ/EN)(2160p 4K BRRip) = CSFD 90% | SkTorrent.eu

Cz-SkTorrent open Tracker, na volné zdielanie súborov. Pridajte sa k nasej komunite a získajte pristup k tisícom torrentov.

  • vysoká rýchlost
  • úplne zdarma
  • prevazne Slovenska a Ceska scena
  • ste tu s nami uz 5 rokov - Dakujeme
  • Vitaj Guest (Login) Ako stahovat
    torrenty?
    Torrenty:
    v1 textová
    v2 obrázková
    v3 online filmy
    Ako sa stat
    Uploaderom
    Online
    Filmy
    Forum
    Pravidlá
    BitTorrent
    klient
    Meno: Heslo:
    Zaregistrovat
    Po zaregistrovaní mozte volne stahovat
    Zabudol som heslo

    Torrent's details
    Pan prstenu: Spolocenstvo Prstenu / The Lord of the Rings: The Fellowship of the Ring - EXTENDED (2001)(CZ/EN)(2160p 4K BRRip) = CSFD 90% Názov:Pan prstenu: Spolocenstvo Prstenu / The Lord of the Rings: The Fellowship of the Ring - EXTENDED (2001)(CZ/EN)(2160p 4K BRRip) = CSFD 90% Hodnocení: Stiahnut
    Pozriet Online
    Kategória:UHD Filmy Velikost:31.2 GB BitTorrent klient
    Pridaný: Súbory:
    Skontrolován:2021-07-17 Peerov:20 (Seed: 12, Leech: 8)
    Zaner:Akcni,Dobrodruzny,Fantasy Uploader:Uvidis, az ked budes
    VIP
    Kúp nám Pivo 1,10€

    Kúp nám Pivo
    Podporte nas na Facebooku !
    Pridaj do zalozky
    Pridaj do zalozky






    Pan prstenu: Spolocenstvo Prstenu
    The Lord of the Rings: The Fellowship of the Ring
    (2001)(CZ/EN) = CSFD 90%

    EXTENDED - 2160p 4K HDR10 - HEVC – 19.5 Mb/s Bitrate verzia


    ... Na zelanie ...






    Video: 2160p 4K - HEVC
    Jazyk: CZ 5.1 DD / CZ 5.1 AAC / EN 7.1 AAC / EN 5.1 AAC / EN 5.1 DD
    Titulky: CZ Full + Forced
    Fantasy / Akcni / Dobrodruzny
    USA / NWZ 2001
    228 min

    Režie: Peter Jackson
    Předloha: John Ronald Reuel Tolkien (kniha)
    Scénář: Fran Walsh, Philippa Boyens, Peter Jackson
    Kamera: Andrew Lesnie
    Hudba: Howard Shore
    Hrají: Elijah Wood, Ian McKellen, Noel Appleby, Viggo Mortensen, Sean Astin, Cate Blanchett, Sean Bean, Liv Tyler, John Rhys-Davies, Billy Boyd, Dominic Monaghan, Orlando Bloom, Christopher Lee, Hugo Weaving, Ian Holm, Marton Csokas, Craig Parker, Andy Serkis, Ian Mune, Lawrence Makoare, Harry Sinclair, Elizabeth Moody, Peter Jackson, Bill Johnson, Billy Jackson, Bret McKenzie, Sala Baker, Alan Howard, Shane Rangi, Sabine Crossen, Mark Ferguson, Martyn Sanderson, Jono Manks, Lori Dungey, Sam Kelly, Peter McKenzie, Gino Acevedo, Tim Kano

    OBSAH

    V dávných dobách byl vykován kouzelný prsten, který vlastnil pán Mordoru Sauron. Jeho moc začal využívat k šíření zla, ale o prsten nakonec v boji přišel, a ten na dlouhá léta zmizel. Nakonec ho našel hobit Bilbo Pytlík, který díky němu přestal stárnout. Na naléhavou žádost čaroděje Gandalfa předá prsten synovci Frodovi. Ten se svými kamarády Samem, Smíškem a Pipinem odcházejí do Hůrky a Gandalf se vydává pro radu za svým učitelem, čarodějem Sarumanem. Ten se však přidal na stranu zla a zajme ho. S pomocí tajemného hraničáře, přezdívaného Chodec, Frodo a jeho kamarádi uniknou jen o vlásek devíti černým jezdcům, kteří vyrazili z Temné věže, aby prsten našli a přinesli svému pánovi Sauronovi. Do Roklinky je svolána velká porada lidí a elfů, která rozhodne, že prsten musí být zničen. To je možné pouze tam, kde byl prsten zrozen, v ohni Hory osudu. Odvážný Frodo se nabídne, že tam prsten odnese. Nebezpečí je však příliš veliké, a tak se mu, jako jeho ochránci, postaví po bok čaroděj Gandalf, trpaslík Gimli, elf Legolas, bojovník Boromir, hobiti Sam, Smíšek a Pipin a také Chodec. Zrodí se Společenstvo Prstenu, které se vydává na nebezpečnou cestu plnou nástrah a nebezpečí.

    SCREEN



    TRAILER






    Hlavní
    Formát : Matroska
    Format version : Version 4
    Velikost souboru : 31,2 GiB
    Duration : 3 h 48 min
    Celkový BitRate : 19,5 Mb/s
    Encoded date : UTC 2021-07-17 20:22:08
    Použitý software : mkvmerge v31.0.0 ('Dolores In A Shoestand') 64-bit
    Enkódoval : libebml v1.3.6 + libmatroska v1.4.9 / Lavf58.2.100

    Video
    ID : 1
    Formát : HEVC
    Formát/Info : High Efficiency Video Coding
    Format profile : Main 10@L5@Main
    HDR format : SMPTE ST 2086, HDR10 compatible
    Codec ID : V_MPEGH/ISO/HEVC
    Duration : 3 h 48 min
    Bit rate : 14,8 Mb/s
    Šířka : 3 840pixely
    Výška : 1 608pixely
    Poměr stran : 2,40:1
    Frame rate mode : Constant
    Frame rate : 23,976 (24000/1001) FPS
    Color space : YUV
    Chroma subsampling : 4:2:0
    Bit depth : 10 bits
    Bits/(Pixel*Frame) : 0.100
    Stream size : 23,6 GiB (76%)
    Enkódoval : x265 3.2+23-52135ffd9bcd:[Windows][GCC 9.2.0][64 bit] 10bit
    Default : Ano
    Forced : Ne
    Color range : Limited
    Color primaries : BT.2020
    Transfer characteristics : PQ
    Matrix coefficients : BT.2020 non-constant
    Mastering display color primaries : Display P3
    Mastering display luminance : min: 0.0050 cd/m2, max: 4000 cd/m2
    Maximum Content Light Level : 602 cd/m2
    Maximum Frame-Average Light Level : 184 cd/m2

    Audio #1
    ID : 2
    Formát : AAC LC
    Formát/Info : Advanced Audio Codec Low Complexity
    Codec ID : A_AAC-2
    Duration : 3 h 48 min
    Bit rate : 880 kb/s
    Kanál(y) : 8 kanály
    Channel layout : C L R Ls Rs Lb Rb LFE
    Sampling rate : 48,0 kHz
    Frame rate : 46,875 FPS (1024 SPF)
    Compression mode : Lossy
    Video delay : 20 ms
    Stream size : 1,40 GiB (5%)
    Jazyk : English
    Default : Ne
    Forced : Ne

    Audio #2
    ID : 3
    Formát : AAC LC
    Formát/Info : Advanced Audio Codec Low Complexity
    Codec ID : A_AAC-2
    Duration : 3 h 48 min
    Bit rate : 640 kb/s
    Kanál(y) : 6 kanály
    Channel layout : C L R Ls Rs LFE
    Sampling rate : 48,0 kHz
    Frame rate : 46,875 FPS (1024 SPF)
    Compression mode : Lossy
    Stream size : 1,02 GiB (3%)
    Jazyk : Czech
    Default : Ne
    Forced : Ano

    Audio #3
    ID : 4
    Formát : AAC LC
    Formát/Info : Advanced Audio Codec Low Complexity
    Codec ID : A_AAC-2
    Duration : 3 h 48 min
    Bit rate : 640 kb/s
    Kanál(y) : 6 kanály
    Channel layout : C L R Ls Rs LFE
    Sampling rate : 48,0 kHz
    Frame rate : 46,875 FPS (1024 SPF)
    Compression mode : Lossy
    Stream size : 1,02 GiB (3%)
    Jazyk : English
    Default : Ne
    Forced : Ne

    Audio #4
    ID : 7
    Formát : AC-3
    Formát/Info : Audio Coding 3
    Commercial name : Dolby Digital
    Codec ID : A_AC3
    Duration : 3 h 48 min
    Bit rate mode : Constant
    Bit rate : 640 kb/s
    Kanál(y) : 6 kanály
    Channel layout : L R C LFE Ls Rs
    Sampling rate : 48,0 kHz
    Frame rate : 31,250 FPS (1536 SPF)
    Compression mode : Lossy
    Stream size : 1,02 GiB (3%)
    Jazyk : Czech
    Service kind : Complete Main
    Default : Ano
    Forced : Ano

    Audio #5
    ID : 8
    Formát : AC-3
    Formát/Info : Audio Coding 3
    Commercial name : Dolby Digital
    Codec ID : A_AC3
    Duration : 3 h 48 min
    Bit rate mode : Constant
    Bit rate : 640 kb/s
    Kanál(y) : 6 kanály
    Channel layout : L R C LFE Ls Rs
    Sampling rate : 48,0 kHz
    Frame rate : 31,250 FPS (1536 SPF)
    Compression mode : Lossy
    Stream size : 1,02 GiB (3%)
    Jazyk : English
    Service kind : Complete Main
    Default : Ne
    Forced : Ne

    Audio #6
    ID : 9
    Formát : AAC LC
    Formát/Info : Advanced Audio Codec Low Complexity
    Codec ID : A_AAC-2
    Duration : 3 h 48 min
    Bit rate : 640 kb/s
    Kanál(y) : 6 kanály
    Channel layout : C L R Ls Rs LFE
    Sampling rate : 48,0 kHz
    Frame rate : 46,875 FPS (1024 SPF)
    Compression mode : Lossy
    Stream size : 1,02 GiB (3%)
    Jazyk : Czech
    Default : Ne
    Forced : Ne

    Audio #7
    ID : 10
    Formát : AAC LC
    Formát/Info : Advanced Audio Codec Low Complexity
    Codec ID : A_AAC-2
    Duration : 3 h 48 min
    Bit rate : 640 kb/s
    Kanál(y) : 6 kanály
    Channel layout : C L R Ls Rs LFE
    Sampling rate : 48,0 kHz
    Frame rate : 46,875 FPS (1024 SPF)
    Compression mode : Lossy
    Stream size : 1,02 GiB (3%)
    Jazyk : English
    Default : Ne
    Forced : Ne

    Text #1
    ID : 5
    Formát : ASS
    Codec ID : S_TEXT/ASS
    Codec ID/Info : Advanced Sub Station Alpha
    Duration : 3 h 13 min
    Bit rate : 15 b/s
    Count of elements : 402
    Compression mode : Lossless
    Stream size : 22,0 KiB (0%)
    Jazyk : Czech
    Default : Ano
    Forced : Ano

    Text #2
    ID : 6
    Formát : ASS
    Codec ID : S_TEXT/ASS
    Codec ID/Info : Advanced Sub Station Alpha
    Duration : 3 h 19 min
    Bit rate : 64 b/s
    Count of elements : 1766
    Compression mode : Lossless
    Stream size : 93,7 KiB (0%)
    Jazyk : Czech
    Default : Ne
    Forced : Ne

    Menu #1
    00:00:00.000 : Kapitola 01
    00:01:51.000 : Kapitola 02
    00:03:42.000 : Kapitola 03
    00:05:33.000 : Kapitola 04
    00:07:24.000 : Kapitola 05
    00:09:15.000 : Kapitola 06
    00:11:06.000 : Kapitola 07
    00:12:57.000 : Kapitola 08
    00:14:48.000 : Kapitola 09
    00:16:39.000 : Kapitola 10
    00:18:30.000 : Kapitola 11
    00:20:21.000 : Kapitola 12
    00:22:12.000 : Kapitola 13
    00:24:03.000 : Kapitola 14
    00:25:54.000 : Kapitola 15
    00:27:45.000 : Kapitola 16
    00:29:36.000 : Kapitola 17
    00:31:27.000 : Kapitola 18
    00:33:18.000 : Kapitola 19
    00:35:09.000 : Kapitola 20
    00:37:00.000 : Kapitola 21
    00:38:51.000 : Kapitola 22
    00:40:42.000 : Kapitola 23
    00:42:33.000 : Kapitola 24
    00:44:24.000 : Kapitola 25
    00:46:15.000 : Kapitola 26
    00:48:06.000 : Kapitola 27
    00:49:57.000 : Kapitola 28
    00:51:48.000 : Kapitola 29
    00:53:39.000 : Kapitola 30
    00:55:30.000 : Kapitola 31
    00:57:21.000 : Kapitola 32
    00:59:12.000 : Kapitola 33
    01:01:03.000 : Kapitola 34
    01:02:54.000 : Kapitola 35
    01:04:45.000 : Kapitola 36
    01:06:36.000 : Kapitola 37
    01:08:27.000 : Kapitola 38
    01:10:18.000 : Kapitola 39
    01:12:09.000 : Kapitola 40
    01:14:00.000 : Kapitola 41
    01:15:51.000 : Kapitola 42
    01:17:42.000 : Kapitola 43
    01:19:33.000 : Kapitola 44
    01:21:24.000 : Kapitola 45
    01:23:15.000 : Kapitola 46
    01:25:06.000 : Kapitola 47
    01:26:57.000 : Kapitola 48
    01:28:48.000 : Kapitola 49
    01:30:39.000 : Kapitola 50
    01:32:30.000 : Kapitola 51
    01:34:21.000 : Kapitola 52
    01:36:12.000 : Kapitola 53
    01:38:03.000 : Kapitola 54
    01:39:54.000 : Kapitola 55
    01:41:45.000 : Kapitola 56
    01:43:36.000 : Kapitola 57
    01:45:27.000 : Kapitola 58
    01:47:18.000 : Kapitola 59
    01:49:09.000 : Kapitola 60
    01:51:00.000 : Kapitola 61
    01:52:51.000 : Kapitola 62
    01:54:42.000 : Kapitola 63
    01:56:33.000 : Kapitola 64
    01:58:24.000 : Kapitola 65
    02:00:15.000 : Kapitola 66
    02:02:06.000 : Kapitola 67
    02:03:57.000 : Kapitola 68
    02:05:48.000 : Kapitola 69
    02:07:39.000 : Kapitola 70
    02:09:30.000 : Kapitola 71
    02:11:21.000 : Kapitola 72
    02:13:12.000 : Kapitola 73
    02:15:03.000 : Kapitola 74
    02:16:54.000 : Kapitola 75
    02:18:45.000 : Kapitola 76
    02:20:36.000 : Kapitola 77
    02:22:27.000 : Kapitola 78
    02:24:18.000 : Kapitola 79
    02:26:09.000 : Kapitola 80
    02:28:00.000 : Kapitola 81
    02:29:51.000 : Kapitola 82
    02:31:42.000 : Kapitola 83
    02:33:33.000 : Kapitola 84
    02:35:24.000 : Kapitola 85
    02:37:15.000 : Kapitola 86
    02:39:06.000 : Kapitola 87
    02:40:57.000 : Kapitola 88
    02:42:48.000 : Kapitola 89
    02:44:39.000 : Kapitola 90
    02:46:30.000 : Kapitola 91
    02:48:21.000 : Kapitola 92
    02:50:12.000 : Kapitola 93
    02:52:03.000 : Kapitola 94
    02:53:54.000 : Kapitola 95
    02:55:45.000 : Kapitola 96
    02:57:36.000 : Kapitola 97
    02:59:27.000 : Kapitola 98
    03:01:18.000 : Kapitola 99
    03:03:09.000 : Kapitola 100
    03:05:00.000 : Kapitola 101
    03:06:51.000 : Kapitola 102
    03:08:42.000 : Kapitola 103
    03:10:33.000 : Kapitola 104
    03:12:24.000 : Kapitola 105
    03:14:15.000 : Kapitola 106
    03:16:06.000 : Kapitola 107
    03:17:57.000 : Kapitola 108
    03:19:48.000 : Kapitola 109
    03:21:39.000 : Kapitola 110
    03:23:30.000 : Kapitola 111
    03:25:21.000 : Kapitola 112
    03:27:12.000 : Kapitola 113
    03:29:03.000 : Kapitola 114
    03:30:54.000 : Kapitola 115
    03:32:45.000 : Kapitola 116
    03:34:36.000 : Kapitola 117
    03:36:27.000 : Kapitola 118
    03:38:18.000 : Kapitola 119
    03:40:09.000 : Kapitola 120
    03:42:00.000 : Kapitola 121
    03:43:51.000 : Kapitola 122
    03:45:42.000 : Kapitola 123
    03:47:33.000 : Kapitola 124







    VDAKA ZA BODY a SEEDUJTE






























    martinjc, Roman2196, strojostrojo, train, paulusek, DavidTHC, Yopej, Rubikuls, Matt82, SpeedyMajk, mato81,

    + Pridaj vlastnu verziu tohto torrentu +


    Upozornenie:
    Ziadny zo zobrazených súborov sa nenachádza na tomto serveri. Server slúzi len k síreniu vlastnorucne vytvorených aplikácií, videí, hudby ai. Autori stránok nenesú ziadnu zodpovednost za zverejnené odkazy, komentáre a obsah súborov. Vsetky komentáre, odkazy, súbory ktoré by svojou povahou mohli byt v rozpore zo zákonmi sem vkladáte na vlastnú zodpovednost. Autori stránok si vyhradzujú právo cenzúry odkazov, komentárov príp. súborov, ktoré by svojou povahou mohli byt v rozpore zo zákonmi a dobrými mravmi. Dodrzujte pravidlá!





    0
    csmanak
    Ratio 0.78

    Clen

    18/07/2021 10.54.43
    bude i 2,3 v této kvalitě ?


    --------------
    >> 18/07/2021 12.31.12
    UPLOADER: pozri nizsie

    0
    randomuser
    Ratio 20.42

    Member+

    18/07/2021 09.22.05
    Budu aj dalsie diely trilogie?


    --------------
    >> 18/07/2021 10.13.09
    UPLOADER: jasne
    synchro je urobene, dokoncim popisy a budem nahadzovat


    --------------
    >> 27/07/2021 20.37.53
    Koryto01: super, apropo nechystáš se kvalitně i trilogii hobita,,


    --------------
    >> 27/07/2021 22.25.31
    UPLOADER: dam si Ta do zoznamu cakatelov


    --------------
    >> 29/07/2021 20.36.43
    Koryto01: fajn,, díky


    Back

    Na serveru se nenalézají zádne soubory. Za odkazy jsou výhradně zodpovědní uzivatelé a návstěvníci tohoto trackeru. Administrátor není zodpovědný za pridaný obsah ani za skody zpusobené uzivateli. Rozsirovat stránku nebo její obsah bez souhlasu ownera je zakázano. Nesmíte pouzívat tuto webovou stránku pro distribuovaní nebo download zádného materiálu pokud nemáte povolení od príslusného vlastníka práv. Uzivatelé jsou zodpovědní za dodrzování těchto pravidel a podmínek. Owner má právo kdykoliv změnit pravidla tohoto trackeru.

    [ Script trval: 0.035 sec. ] - [ GZIP: enabled ]
    Je zhruba 15:37

    TOPlist