Tvoj účet nieje VIP.
Preto sú tvoje funkcie a možnosti značne obmedzené.
Pre aktiváciu VIP klikni sem.

Parba / Hangover 1 - 3 (2009-2013)(1080p)(CZ/EN/HU) = CSFD 81% | SkTorrent.eu

Cz-SkTorrent open Tracker, na volné zdielanie súborov. Pridajte sa k nasej komunite a získajte pristup k tisícom torrentov.

  • vysoká rýchlost
  • úplne zdarma
  • prevazne Slovenska a Ceska scena
  • ste tu s nami uz 5 rokov - Dakujeme
  • Vitaj Guest (Login) Ako stahovat
    torrenty?
    Torrenty:
    v1 textová
    v2 obrázková
    Ako sa stat
    Uploaderom
    Online
    Filmy
    Forum
    Pravidlá
    BitTorrent
    klient
    Meno: Heslo:
    Zaregistrovat
    Po zaregistrovaní mozte volne stahovat
    Zabudol som heslo

    Parba / Hangover 1 - 3 (2009-2013)(1080p)(CZ/EN/HU) = CSFD 81% Názov:Parba / Hangover 1 - 3 (2009-2013)(1080p)(CZ/EN/HU) = CSFD 81% Hodnocení:N/A Stiahnut
    Pozriet Online
    Kategória:HD Filmy Velikost:11.3 GB BitTorrent klient
    Pridaný: Súbory:
    Skontrolován:2021-12-01 Peerov:12 (Seed: 11, Leech: 1)
    Zaner:Komedie,Road-Movie Uploader:Uvidis, az ked budes
    VIP
    Kúp nám Pivo 1,10€

    Kúp nám Pivo
    Pridaj do zalozky
    Pridaj do zalozky








    Pařba / The Hangover I + II + III (2009-2013)
    HDTV rip CZ/HU a púvodní dabing + CZ tit

                   










    Pařba ve Vegas
    Komedie / Road movie
    USA / Německo, 2009, 96 min (Director's Cut: 108 min)
    Pařba v Bangkoku
    Komedie
    USA, 2011, 102 min (Alternativní 98 min)
    Pařba na třetí
    Komedie
    USA, 2013, 100 min (Alternativní 96 min)




    Pařba ve Vegas
    Dva dny před svatbou odjíždí Doug se svými nejlepšími kamarády Philem a Stuem a budoucím švagrem Alanem do Las Vegas, kde se koná rozlučkový večírek se svobodou, na který nikdy nezapomenou...
    Pařba v Bangkoku
    Jste připraveni na další pařbu? V pokračování úspěšné komedie se Phil ((Bradley Cooper - )), Stu ((Ed Helms - )), Alan ((Zach Galifianakis - )) a Doug ((Justin Bartha - )) vydávají na Stuovu svatbu do exotického Thajska....
    Pařba na třetí
    Už jsou to dva roky, co se kluci v oparu proháněli po střechách špinavé části Las Vegas a vzpamatovávali se z únosu, střelby a pronásledování drogovými mafiány v Bangkoku. Phil, Stu a Doug žijí doma poklidným životem.....








    Formát                                   : Matroska
    Format version                           : Version 4
    Velikost souboru                         : 3,56 GiB
    Duration                                 : 1 h 35 min
    Celkový BitRate                          : 5 329 kb/s
    Název filmu                              : Pařba ve Vegas - The Hangover (2009)(FullHD)(1080p)(CZ-EN-HU) PHDTeam 2021
    Encoded date                             : UTC 2021-12-01 17:41:08
    Použitý software                         : mkvmerge v63.0.0 ('Everything') 64-bit
    Enkódoval                                : libebml v1.4.2 + libmatroska v1.6.4

    Video
    ID                                       : 1
    Formát                                   : AVC
    Formát/Info                              : Advanced Video Codec
    Format profile                           : High@L4
    Format settings                          : CABAC / 4 Ref Frames
    Format settings, CABAC                   : Ano
    Format settings, Reference frames        : 4 frames
    Codec ID                                 : V_MPEG4/ISO/AVC
    Duration                                 : 1 h 35 min
    Bit rate                                 : 4 396 kb/s
    Šířka                                    : 1 920pixely
    Výška                                    : 1 080pixely
    Poměr stran                              : 16:9
    Frame rate mode                          : Variable
    Frame rate                               : 50,000 FPS
    Original frame rate                      : 25,000 FPS
    Standard                                 : Component
    Color space                              : YUV
    Chroma subsampling                       : 4:2:0
    Bit depth                                : 8 bits
    Scan type                                : Interlaced
    Scan type, store method                  : Separated fields
    Scan order                               : Top Field First
    Bits/(Pixel*Frame)                       : 0.042
    Stream size                              : 2,94 GiB (82%)
    Titul                                    : Pařba ve Vegas - The Hangover (2009)(FullHD)(1080p)(CZ-EN-HU) PHDTeam
    Default                                  : Ano
    Forced                                   : Ne
    Color range                              : Limited
    Color primaries                          : BT.709
    Transfer characteristics                 : BT.709
    Matrix coefficients                      : BT.709

    Audio #1
    ID                                       : 2
    Formát                                   : AC-3
    Formát/Info                              : Audio Coding 3
    Commercial name                          : Dolby Digital
    Codec ID                                 : A_AC3
    Duration                                 : 1 h 35 min
    Bit rate mode                            : Constant
    Bit rate                                 : 384 kb/s
    Kanál(y)                                 : 6 kanály
    Channel layout                           : L R C LFE Ls Rs
    Sampling rate                            : 48,0 kHz
    Frame rate                               : 31,250 FPS (1536 SPF)
    Compression mode                         : Lossy
    Video delay                              : 24 ms
    Stream size                              : 263 MiB (7%)
    Titul                                    : CZ AC3 DD 5.1
    Jazyk                                    : Czech
    Service kind                             : Complete Main
    Default                                  : Ano
    Forced                                   : Ne

    Audio #2
    ID                                       : 3
    Formát                                   : AC-3
    Formát/Info                              : Audio Coding 3
    Commercial name                          : Dolby Digital
    Codec ID                                 : A_AC3
    Duration                                 : 1 h 35 min
    Bit rate mode                            : Constant
    Bit rate                                 : 384 kb/s
    Kanál(y)                                 : 6 kanály
    Channel layout                           : L R C LFE Ls Rs
    Sampling rate                            : 48,0 kHz
    Frame rate                               : 31,250 FPS (1536 SPF)
    Compression mode                         : Lossy
    Video delay                              : 24 ms
    Stream size                              : 263 MiB (7%)
    Titul                                    : EN AC3 DD 5.1
    Jazyk                                    : English
    Service kind                             : Complete Main
    Default                                  : Ne
    Forced                                   : Ne

    Audio #3
    ID                                       : 4
    Formát                                   : MPEG Audio
    Format version                           : Version 1
    Format profile                           : Layer 2
    Codec ID                                 : A_MPEG/L2
    Codec ID/Hint                            : MP2
    Duration                                 : 1 h 35 min
    Bit rate mode                            : Constant
    Bit rate                                 : 160 kb/s
    Kanál(y)                                 : 2 kanály
    Sampling rate                            : 48,0 kHz
    Frame rate                               : 41,667 FPS (1152 SPF)
    Compression mode                         : Lossy
    Video delay                              : 104 ms
    Stream size                              : 109 MiB (3%)
    Titul                                    : HU MPEG1DD 2.0
    Jazyk                                    : Hungarian
    Default                                  : Ne
    Forced                                   : Ne

    Text #1
    ID                                       : 5
    Formát                                   : UTF-8
    Codec ID                                 : S_TEXT/UTF8
    Codec ID/Info                            : UTF-8 Plain Text
    Duration                                 : 1 h 31 min
    Bit rate                                 : 69 b/s
    Count of elements                        : 1179
    Stream size                              : 47,0 KiB (0%)
    Titul                                    : CZ tit
    Jazyk                                    : Czech
    Default                                  : Ne
    Forced                                   : Ne

    Text #2
    ID                                       : 6
    Formát                                   : UTF-8
    Codec ID                                 : S_TEXT/UTF8
    Codec ID/Info                            : UTF-8 Plain Text
    Duration                                 : 1 h 31 min
    Bit rate                                 : 73 b/s
    Count of elements                        : 1282
    Stream size                              : 49,0 KiB (0%)
    Titul                                    : EN tit
    Jazyk                                    : English
    Default                                  : Ne
    Forced                                   : Ne














    MartinZetek, Kacsuli85,

    + Pridaj vlastnu verziu tohto torrentu +


    Upozornenie:
    Ziadny zo zobrazených súborov sa nenachádza na tomto serveri. Server slúzi len k síreniu vlastnorucne vytvorených aplikácií, videí, hudby ai. Autori stránok nenesú ziadnu zodpovednost za zverejnené odkazy, komentáre a obsah súborov. Vsetky komentáre, odkazy, súbory ktoré by svojou povahou mohli byt v rozpore zo zákonmi sem vkladáte na vlastnú zodpovednost. Autori stránok si vyhradzujú právo cenzúry odkazov, komentárov príp. súborov, ktoré by svojou povahou mohli byt v rozpore zo zákonmi a dobrými mravmi. Dodrzujte pravidlá!





    2
    Kacsuli85
    Ratio 1.01

    Member+

    29/12/2021 22.05.18
    ďakujem pekne aj za HUN jazyk


    Back

    Na serveru se nenalézají zádne soubory. Za odkazy jsou výhradně zodpovědní uzivatelé a návstěvníci tohoto trackeru. Administrátor není zodpovědný za pridaný obsah ani za skody zpusobené uzivateli. Nesmíte pouzívat tuto webovou stránku pro distribuovaní nebo download zádného materiálu pokud nemáte povolení od príslusného vlastníka práv. Uzivatelé jsou zodpovědní za dodrzování těchto pravidel a podmínek. Owner má právo kdykoliv změnit pravidla tohoto trackeru.

    [ Script trval: 0.025 sec. ] - [ GZIP: enabled ]
    Je zhruba 16:41
    memcache

    TOPlist