Tvoj účet nieje VIP.
Preto sú tvoje funkcie a možnosti značne obmedzené.
Pre aktiváciu VIP klikni sem.

Parfem: Pribeh vraha / Perfume: The Story of a Murderer (2006)(CZ/EN)(2160p 4K BRRemux) = CSFD 78% | SkTorrent.eu

Cz-SkTorrent open Tracker, na volné zdielanie súborov. Pridajte sa k nasej komunite a získajte pristup k tisícom torrentov.

  • vysoká rýchlost
  • úplne zdarma
  • prevazne Slovenska a Ceska scena
  • ste tu s nami uz 5 rokov - Dakujeme
  • Vitaj Guest (Login) Ako stahovat
    torrenty?
    Torrenty:
    v1 textová
    v2 obrázková
    v3 online filmy
    Ako sa stat
    Uploaderom
    Online
    Filmy
    Forum
    Pravidlá
    BitTorrent
    klient
    Meno: Heslo:
    Zaregistrovat
    Po zaregistrovaní mozte volne stahovat
    Zabudol som heslo

    Torrent's details
    Parfem: Pribeh vraha / Perfume: The Story of a Murderer (2006)(CZ/EN)(2160p 4K BRRemux) = CSFD 78% Názov:Parfem: Pribeh vraha / Perfume: The Story of a Murderer (2006)(CZ/EN)(2160p 4K BRRemux) = CSFD 78% Hodnocení: Stiahnut
    Pozriet Online
    Kategória:UHD Filmy Velikost:53.0 GB BitTorrent klient
    Pridaný: Súbory:
    Skontrolován:2021-09-20 Peerov:10 (Seed: 10, Leech: 0)
    Zaner:Drama,Fantasy,Krimi,Thriller Uploader:Uvidis, az ked budes
    VIP
    Kúp nám Pivo 1,10€

    Kúp nám Pivo
    Podporte nas na Facebooku !
    Pridaj do zalozky
    Pridaj do zalozky






    Parfem: Pribeh vraha
    Perfume: The Story of a Murderer
    (2006)(CZ/EN) = CSFD 78%

    2160p 4K HDR10 - HEVC – 51.5 Mb/s Bitrate verzia


    ... na zelanie ...




    Video: 2160p 4K HDR10 - HEVC
    Jazyk: CZ 2.0 DD / SK 2.0 DD / EN 5.1 DTS-HD / EN 5.1 DD
    Titulky: CZ full
    Drama / Thriller / Krimi / Fantasy
    USA / DEU / SPA / FRA  2006
    147 min

    PRODUKCE & HERCI

    Režie: Tom Tykwer
    Předloha: Patrick Süskind (kniha)
    Scénář: Andrew Birkin, Bernd Eichinger, Tom Tykwer
    Kamera: Frank Griebe, Martin Fuhrer
    Hudba: Tom Tykwer, Johnny Klimek, Reinhold Heil
    Hrají: Ben Whishaw, Alan Rickman, Rachel Hurd-Wood, Dustin Hoffman, John Hurt (vypravěč), Karoline Herfurth, David Calder, Simon Chandler, Sian Thomas, Jessica Schwarz, Corinna Harfouch, Paul Berrondo, Sara Forestier, Birgit Minichmayr, Michael Smiley, Richard Felix, Francesc Albiol, Gonzalo Cunill, Andrés Herrera, Catherine Boisgontier, Núria Casas, Walter Cots, Berta Ros, Bridget McConnell, Dora Romano, Carolina Vera, Ramon Pujol, Jerome Willis, Fermí Reixach, Albert Pérez, Richard Collins-Moore, Francesca Piñón, Nico Baixas, Enric Arquimbau, Oriol Tramvia, Ariadna Cabrol, Miquel Bordoy, Carme Contreras, Pedro Gutiérrez, Edgar Moreno, Jaume Najarro, Robert Forcadell, Derek Smee, Sam Douglas

    OBSAH

    Jean-Baptiste Grenouille (B. Whishaw) narozen v roce 1738 v Paříži byl obdařen velmi zvláštním darem. Jako nikdo dokázal díky svému dokonalému čichu rozpoznávat i ty nejjemnější tóny všech vůní a pachů, zcela neznámé obyčejným lidem. Nikoho neměl a ze sirotčince putoval na těžkou práci do koželužny. Čím byl starší, tím víc rozšiřoval spektrum svých známých vůní a byl váben vším, co se linulo z centra Paříže. Nečekal, že tu nejopojnější a nejúžasnější vůni pocítí z krásné mladé dívky, kterou však zcela smyslů zbavený nešťastně zabije. Tato událost v něm vyvolá touhu umět zachytit všechny pachy světa a jejich krásu uchovat tak, aniž by kdy vyprchala. Díky svým schopnostem udělá dojem na starého parfuméristu za zenitem Baldiniho (D. Hoffman) a ten jej zasvětí do tajů svého umění. Uchovat vůni něčeho, co pro obyčejného člověka žádnou vůni nemá, jako skla, mědi, či kočky, však Baldini nesvede, a tak od svého mistra Jean-Baptiste odchází do města Grasse, proslulého města parfumérů, aby uskutečnil svůj děsivý sen – vytvořit dokonalou vůni, tak dokonalou, že by se nebál zopakovat svůj hrůzný čin.

    SCREEN



    TRAILER





    Hlavní
    Formát : Matroska
    Format version : Version 4
    Velikost souboru : 53,0 GiB
    Duration : 2 h 27 min
    Celkový BitRate : 51,5 Mb/s
    Encoded date : UTC 2021-09-20 07:41:59
    Použitý software : mkvmerge v60.0.0 ('Are We Copies?') 64-bit
    Enkódoval : libebml v1.4.2 + libmatroska v1.6.4
    Obal : Yes
    Attachments : small_cover.jpg / small_cover_land.jpg / cover.jpg / cover_land.jpg

    Video
    ID : 1
    Formát : HEVC
    Formát/Info : High Efficiency Video Coding
    Format profile : Main 10@L5.1@High
    HDR format : SMPTE ST 2086, HDR10 compatible
    Codec ID : V_MPEGH/ISO/HEVC
    Duration : 2 h 27 min
    Bit rate : 48,3 Mb/s
    Šířka : 3 840pixely
    Výška : 2 160pixely
    Poměr stran : 16:9
    Frame rate mode : Constant
    Frame rate : 24,000 FPS
    Color space : YUV
    Chroma subsampling : 4:2:0 (Type 2)
    Bit depth : 10 bits
    Bits/(Pixel*Frame) : 0.243
    Stream size : 49,7 GiB (94%)
    Enkódoval : x265 2.0+9-2737c6ff5f80:[Windows][GCC 5.3.1][64 bit] 10bit
    Default : Ano
    Forced : Ne
    Color range : Limited
    Color primaries : BT.2020
    Transfer characteristics : PQ
    Matrix coefficients : BT.2020 non-constant
    Mastering display color primaries : Display P3
    Mastering display luminance : min: 0.0050 cd/m2, max: 1000 cd/m2
    Maximum Content Light Level : 10000 cd/m2
    Maximum Frame-Average Light Level : 400 cd/m2

    Audio #1
    ID : 2
    Formát : DTS XBR
    Formát/Info : Digital Theater Systems
    Commercial name : DTS-HD High Resolution Audio
    Codec ID : A_DTS
    Duration : 2 h 27 min
    Bit rate mode : Constant
    Bit rate : 2 046 kb/s
    Kanál(y) : 6 kanály
    Channel layout : C L R Ls Rs LFE
    Sampling rate : 48,0 kHz
    Frame rate : 93,750 FPS (512 SPF)
    Bit depth : 24 bits
    Compression mode : Lossy
    Stream size : 2,11 GiB (4%)
    Titul : Perfume.The.Story.of.a.Murderer.2006.2160p.BluRay.REMUX.HEVC.DTS-HR.5.1-FGT
    Jazyk : English
    Default : Ano
    Forced : Ne

    Audio #2
    ID : 3
    Formát : AC-3
    Formát/Info : Audio Coding 3
    Commercial name : Dolby Digital
    Codec ID : A_AC3
    Duration : 2 h 27 min
    Bit rate mode : Constant
    Bit rate : 384 kb/s
    Kanál(y) : 2 kanály
    Channel layout : L R
    Sampling rate : 48,0 kHz
    Frame rate : 31,250 FPS (1536 SPF)
    Compression mode : Lossy
    Video delay : 24 ms
    Stream size : 404 MiB (1%)
    Jazyk : Slovak
    Service kind : Complete Main
    Default : Ano
    Forced : Ne

    Audio #3
    ID : 4
    Formát : AC-3
    Formát/Info : Audio Coding 3
    Commercial name : Dolby Digital
    Codec ID : A_AC3
    Duration : 2 h 27 min
    Bit rate mode : Constant
    Bit rate : 384 kb/s
    Kanál(y) : 6 kanály
    Channel layout : L R C LFE Ls Rs
    Sampling rate : 48,0 kHz
    Frame rate : 31,250 FPS (1536 SPF)
    Compression mode : Lossy
    Video delay : 28 ms
    Stream size : 404 MiB (1%)
    Jazyk : English
    Service kind : Complete Main
    Default : Ano
    Forced : Ne

    Audio #4
    ID : 5
    Formát : AC-3
    Formát/Info : Audio Coding 3
    Commercial name : Dolby Digital
    Codec ID : A_AC3
    Duration : 2 h 27 min
    Bit rate mode : Constant
    Bit rate : 384 kb/s
    Kanál(y) : 2 kanály
    Channel layout : L R
    Sampling rate : 44,1 kHz
    Frame rate : 28,711 FPS (1536 SPF)
    Compression mode : Lossy
    Video delay : 6 ms
    Stream size : 404 MiB (1%)
    Jazyk : Czech
    Service kind : Complete Main
    Default : Ano
    Forced : Ano

    Text
    ID : 6
    Formát : UTF-8
    Codec ID : S_TEXT/UTF8
    Codec ID/Info : UTF-8 Plain Text
    Duration : 2 h 26 min
    Bit rate : 25 b/s
    Count of elements : 720
    Stream size : 27,5 KiB (0%)
    Jazyk : Czech
    Default : Ano
    Forced : Ano

    Menu
    00:00:00.000 : Chapter 1
    00:06:51.500 : Chapter 2
    00:11:00.541 : Chapter 3
    00:14:12.208 : Chapter 4
    00:17:57.583 : Chapter 5
    00:22:24.416 : Chapter 6
    00:27:41.250 : Chapter 7
    00:33:30.791 : Chapter 8
    00:39:16.625 : Chapter 9
    00:45:07.041 : Chapter 10
    00:49:23.625 : Chapter 11
    00:55:25.958 : Chapter 12
    00:59:26.625 : Chapter 13
    01:03:26.708 : Chapter 14
    01:08:51.458 : Chapter 15
    01:13:32.166 : Chapter 16
    01:18:39.791 : Chapter 17
    01:23:16.250 : Chapter 18
    01:26:52.291 : Chapter 19
    01:33:27.791 : Chapter 20
    01:39:05.041 : Chapter 21
    01:42:59.416 : Chapter 22
    01:47:51.000 : Chapter 23
    01:52:39.958 : Chapter 24
    01:56:54.250 : Chapter 25
    02:00:41.333 : Chapter 26
    02:05:14.916 : Chapter 27
    02:09:37.208 : Chapter 28
    02:14:39.625 : Chapter 29
    02:17:45.208 : Chapter 30







    VDAKA ZA BODY a SEEDUJTE
















    filename, Threadt, pepa49, Medewill, orlov, cuco114, popoyautja, maysa33, margharethe, Joseph82,

    + Pridaj vlastnu verziu tohto torrentu +


    Upozornenie:
    Ziadny zo zobrazených súborov sa nenachádza na tomto serveri. Server slúzi len k síreniu vlastnorucne vytvorených aplikácií, videí, hudby ai. Autori stránok nenesú ziadnu zodpovednost za zverejnené odkazy, komentáre a obsah súborov. Vsetky komentáre, odkazy, súbory ktoré by svojou povahou mohli byt v rozpore zo zákonmi sem vkladáte na vlastnú zodpovednost. Autori stránok si vyhradzujú právo cenzúry odkazov, komentárov príp. súborov, ktoré by svojou povahou mohli byt v rozpore zo zákonmi a dobrými mravmi. Dodrzujte pravidlá!





    0
    Medewill
    Ratio 0.41

    Clen

    20/09/2021 14.49.57
    Ty kokos ja nemam slov, vraj na zelanie no toto je nadhera doslova


    --------------
    >> 20/09/2021 14.54.46
    Medewill: nevadi nevadi, CZ som tam osobne ani nechcel, zaklad bol oroginal 5.1 a ty si tam dokonca pridal aj DTS a aj Dolby no nemam slov, kedysi som pozeraval cislo filmy v Dolby, lebo telka Samsung uz nepodporuje DTS, no uz sledujem cez Nvidiu Shield + AVR, takze mi idu vsetky kodedy


    --------------
    >> 20/09/2021 15.42.08
    UPLOADER: to DTS-HD tam bolo, pridaval som len 5.1 DD aby to mohli pozerat v EN aj uzivatelia Samsungov


    --------------
    >> 20/09/2021 15.44.22
    UPLOADER: ja uz robim skoro iba na zelanie
    Uploader
    20/09/2021 13.42.10
    SORRY ale CZ 5.1 som vazne nikde nenasiel.... zato ako jediny mam na tuto verziu CZ titulky... dakujem za body a uzivajte


    --------------
    >> 20/09/2021 13.45.19
    filename: My děkujem


    --------------
    >> 20/09/2021 13.46.51
    UPLOADER: moja poklona sefe


    Back

    Na serveru se nenalézají zádne soubory. Za odkazy jsou výhradně zodpovědní uzivatelé a návstěvníci tohoto trackeru. Administrátor není zodpovědný za pridaný obsah ani za skody zpusobené uzivateli. Rozsirovat stránku nebo její obsah bez souhlasu ownera je zakázano. Nesmíte pouzívat tuto webovou stránku pro distribuovaní nebo download zádného materiálu pokud nemáte povolení od príslusného vlastníka práv. Uzivatelé jsou zodpovědní za dodrzování těchto pravidel a podmínek. Owner má právo kdykoliv změnit pravidla tohoto trackeru.

    [ Script trval: 0.027 sec. ] - [ GZIP: enabled ]
    Je zhruba 22:54
    neviem

    TOPlist