Tvoj účet nieje VIP.
Preto sú tvoje funkcie a možnosti značne obmedzené.
Pre aktiváciu VIP klikni sem.

Phar Lap: Národní hrdina / Phar Lap: Hero to a Nation (1983) = CSFD 85% | SkTorrent.eu

Cz-SkTorrent open Tracker, na volné zdieľanie súborov. Pridajte sa k našej komunite a získajte prístup k tisícom torrentov.

  • vysoká rýchlosť
  • úplne zdarma
  • prevažne Slovenská a Česká scéna
  • ste tu s nami už 10 rokov - Ďakujeme
  • Vitaj Guest (Login) Ako stahovat
    torrenty?
    Torrenty:
    v1 textová
    v2 obrázková
    Ako sa stat
    Uploaderom
    Online
    Filmy
    Forum
    Pravidlá
    SkTSocial
    BitTorrent
    klient
    Meno: Heslo:
    Zaregistrovat
    Po zaregistrovaní mozte volne stahovat
    Zabudol som heslo

    Phar Lap: Národní hrdina / Phar Lap: Hero to a Nation (1983) = CSFD 85% Názov:Phar Lap: Národní hrdina / Phar Lap: Hero to a Nation (1983) = CSFD 85% Hodnocení:N/A Stiahnut
    Pozriet Online
    Kategória:Filmy CZ/SK dabing - Velikost:1.4 GB BitTorrent klient
    Pridaný: Súbory:
    Skontrolován:2024-07-01 Peerov:14 (Seed: 14, Leech: 0)
    Zaner:Drama,Rodinny,Sportovni Uploader:Uvidis, az ked budes
    VIP
    Kúp nám Pivo 1,10€

    Kúp nám Pivo

    Pridaj do zalozky
    Pridaj do zalozky







    Phar Lap:
    Národní hrdina



    Drama / Rodinný / Sportovní
    Austrálie, 1983, 103 min
    Režie: Simon Wincer
    Scénář: David Williamson
    Kamera: Russell Boyd
    Hudba: Bruce Rowland
    Hrají: Tom Burlinson, Ron Leibman, Vincent Ball, Gia Carides, Judy Morris, Tommy Woodcock, Richard Terrill, Redmond Phillips, Stuart Finch, Peter Whitford, John Stanton, Robert Grubb
    Střih: Tony Paterson
    TV rip




    Phar Lap byl závodní kůň, kterému nikdo nevěřil. Naději a víru v něj měli jen zkušený trenér Telfort a malý chlapec Tommy, který se o něj staral. Snili o tom, že se kůň stane šampionem bez ohledu na jeho pět prvních porážek na začátku jeho závodní kariéry. Byla to právě dětská láska a emotivní sepětí mezi chlapcem a zvířetem, která udělala z Phar Lapa neporazitelného závodního koně. Jeho výsledky však byly mnoha lidem trnem v oku...











     
    Hlavní
    Celý název a cesta                       : D:\Filmz & Serialz\Phar Lap\Phar_Lap_cz.avi
    Formát                                   : AVI
    Formát/Info                              : Audio Video Interleave
    Format profile                           : OpenDML
    Format settings                          : BitmapInfoHeader / WaveFormatEx
    Velikost souboru                         : 1,45 GiB
    Duration                                 : 1 h 42 min
    Celkový BitRate                          : 2 013 kb/s
    Frame rate                               : 25,000 FPS
    Použitý software                         : MediaCoder 0.6

    Video
    ID                                       : 0
    Formát                                   : MPEG-4 Visual
    Format profile                           : Simple@L3
    Format settings, BVOP                    : Ne
    Format settings, QPel                    : Ne
    Format settings, GMC                     : No warppoints
    Format settings, Matrix                  : Default (H.263)
    Codec ID                                 : XVID
    Codec ID/Hint                            : XviD
    Duration                                 : 1 h 42 min
    Bit rate                                 : 1 870 kb/s
    Šířka                                    : 720pixely
    Výška                                    : 576pixely
    Poměr stran                              : 16:9
    Frame rate                               : 25,000 FPS
    Standard                                 : PAL
    Color space                              : YUV
    Chroma subsampling                       : 4:2:0
    Bit depth                                : 8 bits
    Scan type                                : Progressive
    Compression mode                         : Lossy
    Bits/(Pixel*Frame)                       : 0.180
    Stream size                              : 1,34 GiB (93%)
    Enkódoval                                : XviD 1.2.1 (2008-12-04)

    Audio
    ID                                       : 1
    Formát                                   : MPEG Audio
    Format version                           : Version 1
    Format profile                           : Layer 3
    Format settings                          : Joint stereo / MS Stereo
    Codec ID                                 : 55
    Codec ID/Hint                            : MP3
    Duration                                 : 1 h 42 min
    Bit rate mode                            : Constant
    Bit rate                                 : 128 kb/s
    Kanál(y)                                 : 2 kanály
    Sampling rate                            : 48,0 kHz
    Compression mode                         : Lossy
    Stream size                              : 94,2 MiB (6%)
    Alignment                                : Aligned on interleaves
    Interleave, duration                     : 24  ms (0,60 video frame)
    Interleave, preload duration             : 504  ms

    ReportBy                                 : MediaInfoLib - v24.05.1










    pohee, gurp, margharethe, jofo68,

    + Pridaj vlastnu verziu tohto torrentu +


    Upozornenie:
    Ziadny zo zobrazených súborov sa nenachádza na tomto serveri. Server slúzi len k síreniu vlastnorucne vytvorených aplikácií, videí, hudby ai. Autori stránok nenesú ziadnu zodpovednost za zverejnené odkazy, komentáre a obsah súborov. Vsetky komentáre, odkazy, súbory ktoré by svojou povahou mohli byt v rozpore zo zákonmi sem vkladáte na vlastnú zodpovednost. Autori stránok si vyhradzujú právo cenzúry odkazov, komentárov príp. súborov, ktoré by svojou povahou mohli byt v rozpore zo zákonmi a dobrými mravmi. Dodrzujte pravidlá!





    0
    gurp
    Ratio 2.94

    Member+

    02/07/2024 07.56.34
    na to jsem byl ještě v kině

    2
    SEDO
    Ratio 0.92

    Clen

    02/07/2024 00.38.28
    prosim ta nevies to zohnat v lepsej kvalite. Dakujem.


    --------------
    >> 02/07/2024 06.12.33
    djpatyzon: Měl bych 3,42 GB remaster verzi (23.976 FPS, 1 h 57 min.), akorát je v původním znění, bez dabingu - na staré filmy se zvuk roubuje jen hodně obtížně.
    (pokud ty releasy nějak sleduješ, je to Phar.Lap.1983.1080p.Remastered.BluRay.X264.Will1869.mp4)  


    --------------
    >> 02/07/2024 07.48.01
    UPLOADER:
    nemám nic jiného


    --------------
    >> 02/07/2024 10.57.30
    SEDO: tak potom nic, ale aj tak velmi pekne dakujem za ochotu.


    Back

    Na serveru se nenalézají zádne soubory. Za odkazy jsou výhradně zodpovědní uzivatelé a návstěvníci tohoto trackeru. Administrátor není zodpovědný za pridaný obsah ani za skody zpusobené uzivateli. Nesmíte pouzívat tuto webovou stránku pro distribuovaní nebo download zádného materiálu pokud nemáte povolení od príslusného vlastníka práv. Uzivatelé jsou zodpovědní za dodrzování těchto pravidel a podmínek. Owner má právo kdykoliv změnit pravidla tohoto trackeru.

    [ Script trval: 0.069 sec. ] - [ GZIP: enabled ]
    Je zhruba 14:45
    sql

    TOPlist