Tvoj účet nieje VIP.
Preto sú tvoje funkcie a možnosti značne obmedzené.
Pre aktiváciu VIP klikni sem.

Philadelphia (1993)(BluRay)(Remastered)(1080p)(CZ) = CSFD 85% | SkTorrent.eu

Cz-SkTorrent open Tracker, na volné zdielanie súborov. Pridajte sa k nasej komunite a získajte pristup k tisícom torrentov.

  • vysoká rýchlost
  • úplne zdarma
  • prevazne Slovenska a Ceska scena
  • ste tu s nami uz 5 rokov - Dakujeme
  • Vitaj Guest (Login) Ako stahovat
    torrenty?
    Torrenty:
    v1 textová
    v2 obrázková
    v3 online filmy
    Ako sa stat
    Uploaderom
    Online
    Filmy
    Forum
    Pravidlá
    BitTorrent
    klient
    Meno: Heslo:
    Zaregistrovat
    Po zaregistrovaní mozte volne stahovat
    Zabudol som heslo

    Torrent's details
    Philadelphia (1993)(BluRay)(Remastered)(1080p)(CZ) = CSFD 85% Názov:Philadelphia (1993)(BluRay)(Remastered)(1080p)(CZ) = CSFD 85% Hodnocení: Stiahnut
    Pozriet Online
    Kategória:HD Filmy Velikost:4.3 GB BitTorrent klient
    Pridaný: Súbory:
    Skontrolován:2021-06-16 Peerov:8 (Seed: 8, Leech: 0)
    Zaner:Drama Uploader:Uvidis, az ked budes
    VIP
    Kúp nám Pivo 1,10€

    Kúp nám Pivo
    Podporte nas na Facebooku !
    Pridaj do zalozky
    Pridaj do zalozky








    Philadelphia (1993) (Remastered)
    BluRay rip CZ a púvodní dabing + CZ tit

                   










    Drama
    USA, 1993, 125 min
    Režie: Jonathan Demme
    Scénář: Ron Nyswaner
    Kamera: Tak Fujimoto
    Hudba: Howard Shore
    Hrají: (Tom Hanks - ), Denzel Washington, Roberta Maxwell, Mark Sorensen Jr., Jeffrey Williamson, Charles Glenn, Anna Deavere Smith, Joanne Woodward,





    Andrew Beckett je právník. Mladý, brilantní právník. Homosexuál, infikovaný virem HIV. Svou nemoc dlouho tají, přesvědčen o tom, že s jeho službou klientům nesouvisí. A pak je jednoho dne propuštěn, údajně pro pracovní neschopnost. Ale Andy ví, proč přišel o místo. Připravily ho o ní předsudky, strach, panika a odpor. Diskriminace. Ví, že jeho čas je sečten, ale nevzdává se. Hledá právníka, který by mu pomohl v procesu s jeho mateřskou firmou - a nachází. Černý Joe Miller není tak úspěšný, jako býval Andy, ale jeho vytrvalá víra v právo z něj činí ideálního spojence. Přesto se však zdráhá přijmout Beckettův případ. Stejně jako obžalovaní, jako porota, jako všichni ostatní, i on nemá rád homosexuály, oškliví si je a štítí se AIDS. A snad právě pro svůj odpor nakonec přijímá, přesvědčen o tom, že ve městě, kde byla vyhlášena americká ústava, zaručují rovnost všech, nelze tento boj vzdát. Soudní spor začíná... Inspiraci k natočení filmu bylo údajně onemocnění blízkého přítele režiséra J. Demmeho na AIDS.








    Format                                   : Matroska
    Format version                           : Version 4
    File size                                : 4.35 GiB
    Duration                                 : 2 h 5 min
    Overall bit rate                         : 4 963 kb/s
    Movie name                               : Philadelphia 1993 Cz
    Encoded date                             : UTC 2021-02-10 21:58:06
    Writing application                      : mkvmerge v44.0.0 ('Domino') 64-bit
    Writing library                          : libebml v1.3.10 + libmatroska v1.5.2

    Video
    ID                                       : 1
    Format                                   : AVC
    Format/Info                              : Advanced Video Codec
    Format profile                           : Main@L4.2
    Format settings                          : CABAC / 4 Ref Frames
    Format settings, CABAC                   : Yes
    Format settings, Reference frames        : 4 frames
    Codec ID                                 : V_MPEG4/ISO/AVC
    Duration                                 : 2 h 5 min
    Bit rate                                 : 4 708 kb/s
    Width                                    : 1 920 pixels
    Height                                   : 1 080 pixels
    Display aspect ratio                     : 16:9
    Frame rate mode                          : Constant
    Frame rate                               : 23.976 (24000/1001) FPS
    Color space                              : YUV
    Chroma subsampling                       : 4:2:0
    Bit depth                                : 8 bits
    Scan type                                : Progressive
    Bits/(Pixel*Frame)                       : 0.095
    Stream size                              : 4.12 GiB (95%)
    Title                                    : Philadelphia 1993 Cz
    Writing library                          : x264 core 157 r2935 545de2f
    Encoding settings                        : cabac=1 / ref=2 / deblock=1:-1:-1 / analyse=0x1:0x111 / me=hex / subme=6 / psy=1 / psy_rd=1.00:0.15 / mixed_ref=1 / me_range=16 / chroma_me=1 / trellis=1 / 8x8dct=0 / cqm=0 / deadzone=21,11 / fast_pskip=1 / chroma_qp_offset=-3 / threads=18 / lookahead_threads=3 / sliced_threads=0 / nr=0 / decimate=1 / interlaced=0 / bluray_compat=0 / constrained_intra=0 / bframes=3 / b_pyramid=2 / b_adapt=1 / b_bias=0 / direct=1 / weightb=1 / open_gop=0 / weightp=1 / keyint=240 / keyint_min=24 / scenecut=40 / intra_refresh=0 / rc_lookahead=30 / rc=2pass / mbtree=1 / bitrate=4708 / ratetol=1.0 / qcomp=0.60 / qpmin=0 / qpmax=69 / qpstep=4 / cplxblur=20.0 / qblur=0.5 / vbv_maxrate=50000 / vbv_bufsize=62500 / nal_hrd=none / filler=0 / ip_ratio=1.40 / aq=1:1.00
    Language                                 : Czech
    Default                                  : Yes
    Forced                                   : No
    Color range                              : Limited
    Color primaries                          : BT.709
    Transfer characteristics                 : BT.709
    Matrix coefficients                      : BT.709

    Audio
    ID                                       : 2
    Format                                   : AC-3
    Format/Info                              : Audio Coding 3
    Commercial name                          : Dolby Digital
    Codec ID                                 : A_AC3
    Duration                                 : 2 h 5 min
    Bit rate mode                            : Constant
    Bit rate                                 : 256 kb/s
    Channel(s)                               : 2 channels
    Channel layout                           : L R
    Sampling rate                            : 48.0 kHz
    Frame rate                               : 31.250 FPS (1536 SPF)
    Compression mode                         : Lossy
    Delay relative to video                  : -5 ms
    Stream size                              : 230 MiB (5%)
    Title                                    : DD 2.0 256kb/s
    Language                                 : Czech
    Service kind                             : Complete Main
    Default                                  : Yes
    Forced                                   : No
















    + Pridaj vlastnu verziu tohto torrentu +


    Upozornenie:
    Ziadny zo zobrazených súborov sa nenachádza na tomto serveri. Server slúzi len k síreniu vlastnorucne vytvorených aplikácií, videí, hudby ai. Autori stránok nenesú ziadnu zodpovednost za zverejnené odkazy, komentáre a obsah súborov. Vsetky komentáre, odkazy, súbory ktoré by svojou povahou mohli byt v rozpore zo zákonmi sem vkladáte na vlastnú zodpovednost. Autori stránok si vyhradzujú právo cenzúry odkazov, komentárov príp. súborov, ktoré by svojou povahou mohli byt v rozpore zo zákonmi a dobrými mravmi. Dodrzujte pravidlá!


    No comments...


    Back

    Na serveru se nenalézají zádne soubory. Za odkazy jsou výhradně zodpovědní uzivatelé a návstěvníci tohoto trackeru. Administrátor není zodpovědný za pridaný obsah ani za skody zpusobené uzivateli. Rozsirovat stránku nebo její obsah bez souhlasu ownera je zakázano. Nesmíte pouzívat tuto webovou stránku pro distribuovaní nebo download zádného materiálu pokud nemáte povolení od príslusného vlastníka práv. Uzivatelé jsou zodpovědní za dodrzování těchto pravidel a podmínek. Owner má právo kdykoliv změnit pravidla tohoto trackeru.

    [ Script trval: 0.026 sec. ] - [ GZIP: enabled ]
    BtiTracker (1.4.8) by Btiteam
    Je zhruba 23:02

    TOPlist