Tvoj účet nieje VIP.
Preto sú tvoje funkcie a možnosti značne obmedzené.
Pre aktiváciu VIP klikni sem.

Pilire Zeme / The Pillars of the Earth (2010)(CZ) = CSFD 80% | SkTorrent.eu

Cz-SkTorrent open Tracker, na volné zdielanie súborov. Pridajte sa k nasej komunite a získajte pristup k tisícom torrentov.

  • vysoká rýchlost
  • úplne zdarma
  • prevazne Slovenska a Ceska scena
  • ste tu s nami uz 5 rokov - Dakujeme
  • Vitaj Guest (Login) Ako stahovat
    torrenty?
    Torrenty:
    v1 textová
    v2 obrázková
    v3 online filmy
    Ako sa stat
    Uploaderom
    Online
    Filmy
    Forum
    Pravidlá
    BitTorrent
    klient
    pruzinky
    Meno: Heslo:
    Zaregistrovat
    Po zaregistrovaní mozte volne stahovat
    Zabudol som heslo

    Torrent's details
    Pilire Zeme / The Pillars of the Earth (2010)(CZ) = CSFD 80% Názov:Pilire Zeme / The Pillars of the Earth (2010)(CZ) = CSFD 80% Hodnocení: Stiahnut
    Pozriet Online
    Kategória:Seriál Velikost:5.1 GB BitTorrent klient
    Pridaný: Súbory:
    Skontrolován:2020-07-09 Peerov:6 (Seed: 6, Leech: 0)
    Zaner:Drama,Historicky,Romanticky,Thriller Uploader:Uvidis, az ked budes
    VIP
    Kúp nám Pivo 1,10€

    Kúp nám Pivo
    Podporte nas na Facebooku !
    Pridaj do zalozky
    Pridaj do zalozky





    Jazyk: czech
    Titulky: nie
    Kvalita zvuku: AC3 Dolby digital
    Kvalita videa: avi, DVD-RIP
    Odkaz na CSFD: http://www.csfd.cz/film/278992-pilire-zeme/  
    Rok vydání: 2010
    Délka: 410 min
    Žánr: Drama / Historický / Romantický






    Anglie roku 1123. Tom Stavitel (RUFUS SEWELL), povoláním kameník, sní o stavbě velkolepé katedrály. Spojence pro její realizaci nachází v ambiciozním převorovi Philipovi (MATTHEW MACFADYEN). Zatímco se Anglie po smrti krále Jindřicha I. utápí v občanské válce, začíná se v Kingsbridgi po letech příprav mohutně stavět. Zhmotnění jedné velké představy však bude trvat několik desetiletí plných intrik, vražd a válek. Bez síly lásky by však cíle nebylo nikdy dosaženo. To ona dává lidem křídla k uskutečnění snů malých i velkých. To ona pomáhá dobru zvítězit nad zlem. A právě o tomto vítězství je náš příběh.
    PILÍŘE ZEMĚ, knižní bestseller Kena Folletta je již několik let na výsluní zájmu čtenářů celého světa. Nyní k vám přichází 4dílné filmové zpracování tohoto velkolepého historicko-dobrodružného eposu z produkční dílny Tonyho a Ridleye Scottových, tvůrců hitů Gladiátor a Robin Hood.






    DVD 1 Rip - 01:45:23 - 1300MB
    DVD 2 Rip - 01:37:38 - 1210MB
    DVD 3 Rip - 01:42:48 - 1280MB
    DVD 4 Rip - 01:45:28 - 1310MB
    SPOLU: 4DVD - 06:51:18 - 5110MB





    Format: AVI
    Format/Info: Audio Video Interleave
    Format profile: OpenDML
    File size: 1.22 GiB
    Duration: 1h 37mn
    Overall bit rate: 1 783 Kbps
    Movie name: DVD2 - Pilire Zeme.Title4.DVDRip
    Writing application: Lavf52.78.4
    Original source form/Name: DVD2 - Pilire Zeme

    Video
    ID: 0
    Format: MPEG-4 Visual
    Format profile: Advanced Simple@L5
    Format settings, BVOP: 2
    Format settings, QPel: No
    Format settings, GMC: No warppoints
    Format settings, Matrix: Default (H.263)
    Muxing mode: Packed bitstream
    Codec ID: XVID
    Codec ID/Hint: XviD
    Duration: 1h 37mn
    Bit rate: 1 450 Kbps
    Width: 720 pixels
    Height: 406 pixels
    Display aspect ratio: 16:9
    Frame rate: 25.000 fps
    Color space: YUV
    Chroma subsampling: 4:2:0
    Bit depth: 8 bits
    Scan type: Progressive
    Compression mode: Lossy
    Bits/(Pixel*Frame): 0.198
    Stream size: 1 012 MiB (81%)
    Writing library: XviD 1.2.1 (UTC 2008-12-04)




    Audio
    ID: 1
    Format: AC-3
    Format/Info: Audio Coding 3
    Mode extension: CM (complete main)
    Codec ID: 2000
    Duration: 1h 37mn
    Bit rate mode: Constant
    Bit rate: 320 Kbps
    Channel(s): 2 channels
    Channel positions: Front: L R
    Sampling rate: 48.0 KHz
    Bit depth: 16 bits
    Compression mode: Lossy
    Stream size: 43.3 MiB (3%)
    Alignment: Aligned on interleaves
    Interleave, duration: 165 ms (4.13 video frames)
    Interleave, preload duration: 32 ms













    doboska,

    + Pridaj vlastnu verziu tohto torrentu +


    Upozornenie:
    Ziadny zo zobrazených súborov sa nenachádza na tomto serveri. Server slúzi len k síreniu vlastnorucne vytvorených aplikácií, videí, hudby ai. Autori stránok nenesú ziadnu zodpovednost za zverejnené odkazy, komentáre a obsah súborov. Vsetky komentáre, odkazy, súbory ktoré by svojou povahou mohli byt v rozpore zo zákonmi sem vkladáte na vlastnú zodpovednost. Autori stránok si vyhradzujú právo cenzúry odkazov, komentárov príp. súborov, ktoré by svojou povahou mohli byt v rozpore zo zákonmi a dobrými mravmi. Dodrzujte pravidlá!


    No comments...


    Back

    Na serveru se nenalézají zádne soubory. Za odkazy jsou výhradně zodpovědní uzivatelé a návstěvníci tohoto trackeru. Administrátor není zodpovědný za pridaný obsah ani za skody zpusobené uzivateli. Rozsirovat stránku nebo její obsah bez souhlasu ownera je zakázano. Nesmíte pouzívat tuto webovou stránku pro distribuovaní nebo download zádného materiálu pokud nemáte povolení od príslusného vlastníka práv. Uzivatelé jsou zodpovědní za dodrzování těchto pravidel a podmínek. Owner má právo kdykoliv změnit pravidla tohoto trackeru.

    [ Script trval: 0.038 sec. ] - [ GZIP: enabled ]
    BtiTracker (1.4.8) by Btiteam
    Je zhruba 04:28

    TOPlist