Tvoj účet nieje VIP.
Preto sú tvoje funkcie a možnosti značne obmedzené.
Pre aktiváciu VIP klikni sem.

| SkTorrent.eu

Cz-SkTorrent open Tracker, na volné zdielanie súborov. Pridajte sa k nasej komunite a získajte pristup k tisícom torrentov.

  • vysoká rýchlost
  • úplne zdarma
  • prevazne Slovenska a Ceska scena
  • ste tu s nami uz 5 rokov - Dakujeme
  • Vitaj Guest (Login) Ako stahovat
    torrenty?
    Torrenty:
    v1 textová
    v2 obrázková
    v3 online filmy
    Ako sa stat
    Uploaderom
    Online
    Filmy
    Forum
    Pravidlá
    BitTorrent
    klient
    Meno: Heslo:
    Zaregistrovat
    Po zaregistrovaní mozte volne stahovat
    Zabudol som heslo

    Torrent's details
    Pirati z Karibiku: Salazarova pomsta / Pirates of the Caribbean: Dead Men Tell No Tales (2017)(CZ/EN)(2160p 4K BRRip) = CSFD 68% Názov:Pirati z Karibiku: Salazarova pomsta / Pirates of the Caribbean: Dead Men Tell No Tales (2017)(CZ/EN)(2160p 4K BRRip) = CSFD 68% Hodnocení: Stiahnut
    Pozriet Online
    Kategória:UHD Filmy Velikost:26.6 GB BitTorrent klient
    Pridaný: Súbory:
    Skontrolován:2021-07-19 Peerov:7 (Seed: 7, Leech: 0)
    Zaner:Akcni,Dobrodruzny,Fantasy Uploader:Uvidis, az ked budes
    VIP
    Kúp nám Pivo 1,10€

    Kúp nám Pivo
    Podporte nas na Facebooku !
    Pridaj do zalozky
    Pridaj do zalozky






    Pirati z Karibiku: Salazarova pomsta
    Pirates of the Caribbean: Dead Men Tell No Tales
    (2017)(CZ/EN) = CSFD 68%

    2160p 4K HDR10 - HEVC – 29.5 Mb/s Bitrate verzia










    Video: 2160p 4K HDR10 - HEVC
    Jazyk: CZ 5.1 DD / EN 7.1 TrueHD / EN 5.1 DTS / EN 5.1 DD
    Titulky: CZ Full + Forced / EN
    Akcni / Dobrodruzny / Fantasy
    USA 2017
    129 min

    Režie: Joachim Rønning, Espen Sandberg
    Scénář: Jeff Nathanson
    Kamera: Paul Cameron
    Hudba: Geoff Zanelli
    Hrají: (Johnny Depp - ), (Javier Bardem - ), Brenton Thwaites, Kaya Scodelario, Kevin McNally, Golshifteh Farahani, David Wenham, Stephen Graham, Geoffrey Rush, Angus Barnett, Martin Klebba, Adam Brown, Giles New, Orlando Bloom, (Keira Knightley - ), Paul McCartney, Danny Kirrane, Rodney Afif, Nico Cortez, Bruce Spence, Brooke Chamberlain, Piper Nairn, James Mackay, Bryan Probets, Alexander Scheer, Michael Dorman, Rohan Nichol, Andreas Sobik, Goran D. Kleut, Zoe Ventoura, James Fraser, Hannah Walters, Jonathan Elsom, K. Todd Freeman, Darcy Laurie, Jacob Elordi, Ben O'Toole, Anthony De La Torre, Joe Klocek, Lewis McGowan, Akos Armont, Jessica Green, Jamie Carter, Juan Carlos Vellido, Madison Haley, Alexandra MacDonald, Korey Williams, Salvatore Merenda

    OBSAH

    V dalším pokračování svých fantastických dobrodružství se kapitán Jack, ke kterému se štěstěna opět jednou nemilosrdně obrátila zády, ocitá tváří v tvář bandě smrtících pirátských duchů pod vedením strašlivého kapitána Salazara ((Javier Bardem - )), kterým se podařilo uniknout z Ďáblova trojúhelníku a jejichž jedinou touhou je připravit o život každého piráta - a zejména Jacka. Jackovou jedinou nadějí na přežití je bájný Poseidonův trojzubec, ale pokud má mít šanci ho nalézt, musí přesvědčit ke spolupráci Carinu Smythovou (Kaya Scodelario), geniální a krásnou astronomku, a Henryho (Brenton Thwaites), tvrdohlavého mladého námořníka a člena královského námořnictva. Jedině s jejich pomocí má kapitán Jack, svírající v rukách pevně kormidelní kolo Umírajícího racka, své zoufale nicotné a zchátralé lodi, naději nejen zvrátit nepřízeň osudu, se kterou se poslední dobou potýkal, ale také zachránit si život ve střetu s nejmocnějším a nejděsivějším protivníkem, jakému byl kdy nucen čelit.

    SCREEN



    TRAILER






    Hlavní
    Formát : Matroska
    Format version : Version 4
    Velikost souboru : 26,6 GiB
    Duration : 2 h 9 min
    Overall bit rate mode : Variable
    Celkový BitRate : 29,5 Mb/s
    Encoded date : UTC 2021-07-18 19:47:05
    Použitý software : mkvmerge v31.0.0 ('Dolores In A Shoestand') 64-bit
    Enkódoval : libebml v1.3.6 + libmatroska v1.4.9
    Obal : Yes
    Attachments : cover.png

    Video
    ID : 1
    Formát : HEVC
    Formát/Info : High Efficiency Video Coding
    Format profile : Main 10@L5.1@High
    HDR format : SMPTE ST 2086, HDR10 compatible
    Codec ID : V_MPEGH/ISO/HEVC
    Duration : 2 h 9 min
    Bit rate : 17,8 Mb/s
    Šířka : 3 840pixely
    Výška : 1 600pixely
    Poměr stran : 2,40:1
    Frame rate mode : Constant
    Frame rate : 23,976 (24000/1001) FPS
    Color space : YUV
    Chroma subsampling : 4:2:0 (Type 2)
    Bit depth : 10 bits
    Bits/(Pixel*Frame) : 0.121
    Stream size : 16,0 GiB (60%)
    Enkódoval : x265 2.5+38-8a121d8cc134:[Windows][GCC 6.2.1][64 bit] 10bit
    Default : Ano
    Forced : Ne
    Color range : Limited
    Color primaries : BT.2020
    Transfer characteristics : PQ
    Matrix coefficients : BT.2020 non-constant
    Mastering display color primaries : Display P3
    Mastering display luminance : min: 0.0050 cd/m2, max: 1000 cd/m2

    Audio #1
    ID : 2
    Formát : MLP FBA 16-ch
    Formát/Info : Meridian Lossless Packing FBA with 16-channel presentation
    Commercial name : Dolby TrueHD with Dolby Atmos
    Codec ID : A_TRUEHD
    Duration : 2 h 9 min
    Bit rate mode : Variable
    Bit rate : 8 918 kb/s
    Maximum bit rate : 11,9 Mb/s
    Kanál(y) : 8 kanály
    Channel layout : L R C LFE Ls Rs Lb Rb
    Sampling rate : 48,0 kHz
    Frame rate : 1 200,000 FPS (40 SPF)
    Compression mode : Lossless
    Stream size : 8,04 GiB (30%)
    Jazyk : English
    Default : Ne
    Forced : Ne
    Number of dynamic objects : 13
    Bed channel count : 1 kanál
    Bed channel configuration : LFE

    Audio #2
    ID : 3
    Formát : AC-3
    Formát/Info : Audio Coding 3
    Commercial name : Dolby Digital
    Codec ID : A_AC3
    Duration : 2 h 9 min
    Bit rate mode : Constant
    Bit rate : 640 kb/s
    Kanál(y) : 6 kanály
    Channel layout : L R C LFE Ls Rs
    Sampling rate : 48,0 kHz
    Frame rate : 31,250 FPS (1536 SPF)
    Compression mode : Lossy
    Stream size : 591 MiB (2%)
    Jazyk : English
    Service kind : Complete Main
    Default : Ne
    Forced : Ne

    Audio #3
    ID : 4
    Formát : AC-3
    Formát/Info : Audio Coding 3
    Commercial name : Dolby Digital
    Codec ID : A_AC3
    Duration : 2 h 9 min
    Bit rate mode : Constant
    Bit rate : 640 kb/s
    Kanál(y) : 6 kanály
    Channel layout : L R C LFE Ls Rs
    Sampling rate : 48,0 kHz
    Frame rate : 31,250 FPS (1536 SPF)
    Compression mode : Lossy
    Video delay : 995 ms
    Stream size : 591 MiB (2%)
    Jazyk : Czech
    Service kind : Complete Main
    Default : Ano
    Forced : Ano

    Audio #4
    ID : 8
    Formát : DTS
    Formát/Info : Digital Theater Systems
    Codec ID : A_DTS
    Duration : 2 h 9 min
    Bit rate mode : Constant
    Bit rate : 1 509 kb/s
    Kanál(y) : 6 kanály
    Channel layout : C L R Ls Rs LFE
    Sampling rate : 48,0 kHz
    Frame rate : 93,750 FPS (512 SPF)
    Bit depth : 24 bits
    Compression mode : Lossy
    Stream size : 1,36 GiB (5%)
    Jazyk : English
    Default : Ne
    Forced : Ano

    Text #1
    ID : 5
    Formát : UTF-8
    Codec ID : S_TEXT/UTF8
    Codec ID/Info : UTF-8 Plain Text
    Duration : 1 h 57 min
    Bit rate : 45 b/s
    Count of elements : 1215
    Stream size : 38,9 KiB (0%)
    Jazyk : Czech
    Default : Ne
    Forced : Ne

    Text #2
    ID : 6
    Formát : UTF-8
    Codec ID : S_TEXT/UTF8
    Codec ID/Info : UTF-8 Plain Text
    Duration : 1 h 4 min
    Bit rate : 0 b/s
    Count of elements : 12
    Stream size : 322 Bytes (0%)
    Jazyk : Czech
    Default : Ano
    Forced : Ano

    Text #3
    ID : 7
    Formát : UTF-8
    Codec ID : S_TEXT/UTF8
    Codec ID/Info : UTF-8 Plain Text
    Duration : 2 h 7 min
    Bit rate : 48 b/s
    Count of elements : 1772
    Stream size : 45,7 KiB (0%)
    Jazyk : English
    Default : Ne
    Forced : Ne

    Menu #1
    00:00:00.000 : en:00:00:00.000
    00:05:49.558 : en:00:05:49.558
    00:08:34.264 : en:00:08:34.264
    00:13:40.862 : en:00:13:40.862
    00:16:29.197 : en:00:16:29.197
    00:22:33.894 : en:00:22:33.894
    00:25:19.309 : en:00:25:19.309
    00:28:06.143 : en:00:28:06.143
    00:31:41.817 : en:00:31:41.817
    00:33:44.856 : en:00:33:44.856
    00:37:02.095 : en:00:37:02.095
    00:42:27.754 : en:00:42:27.754
    00:49:09.113 : en:00:49:09.113
    00:54:00.320 : en:00:54:00.320
    00:57:19.436 : en:00:57:19.436
    01:00:38.760 : en:01:00:38.760
    01:08:29.981 : en:01:08:29.981
    01:11:57.063 : en:01:11:57.063
    01:16:50.981 : en:01:16:50.981
    01:19:27.513 : en:01:19:27.513
    01:25:04.850 : en:01:25:04.850
    01:27:42.215 : en:01:27:42.215
    01:31:43.832 : en:01:31:43.832
    01:38:22.855 : en:01:38:22.855
    01:42:36.817 : en:01:42:36.817
    01:47:23.604 : en:01:47:23.604
    01:52:58.730 : en:01:52:58.730
    01:59:09.976 : en:01:59:09.976

    Menu #2
    00:00:00.000 : en:00:00:00.000
    00:05:49.516 : en:00:05:49.516
    00:08:34.222 : en:00:08:34.222
    00:13:40.820 : en:00:13:40.820
    00:16:29.155 : en:00:16:29.155
    00:22:33.852 : en:00:22:33.852
    00:25:19.268 : en:00:25:19.268
    00:28:06.101 : en:00:28:06.101
    00:31:41.775 : en:00:31:41.775
    00:33:44.814 : en:00:33:44.814
    00:37:02.053 : en:00:37:02.053
    00:42:27.712 : en:00:42:27.712
    00:49:09.071 : en:00:49:09.071
    00:54:00.279 : en:00:54:00.279
    00:57:19.394 : en:00:57:19.394
    01:00:38.718 : en:01:00:38.718
    01:08:29.939 : en:01:08:29.939
    01:11:57.021 : en:01:11:57.021
    01:16:50.940 : en:01:16:50.940
    01:19:27.471 : en:01:19:27.471
    01:25:04.808 : en:01:25:04.808
    01:27:42.174 : en:01:27:42.174
    01:31:43.790 : en:01:31:43.790
    01:38:22.814 : en:01:38:22.814
    01:42:36.776 : en:01:42:36.776
    01:47:23.562 : en:01:47:23.562
    01:52:58.689 : en:01:52:58.689
    01:59:09.934 : en:01:59:09.934







    VDAKA ZA BODY a SEEDUJTE










    Blaster550, DARKone, Lucifeeer.666, DavidTHC, pretorian_pp, Koryto01,

    + Pridaj vlastnu verziu tohto torrentu +


    Upozornenie:
    Ziadny zo zobrazených súborov sa nenachádza na tomto serveri. Server slúzi len k síreniu vlastnorucne vytvorených aplikácií, videí, hudby ai. Autori stránok nenesú ziadnu zodpovednost za zverejnené odkazy, komentáre a obsah súborov. Vsetky komentáre, odkazy, súbory ktoré by svojou povahou mohli byt v rozpore zo zákonmi sem vkladáte na vlastnú zodpovednost. Autori stránok si vyhradzujú právo cenzúry odkazov, komentárov príp. súborov, ktoré by svojou povahou mohli byt v rozpore zo zákonmi a dobrými mravmi. Dodrzujte pravidlá!





    0
    DavidTHC
    Ratio 3.98

    Member+

    19/07/2021 17.55.29
    super torent,chvalim dal sis s tim urcite nejakou praci ale vysledek stoji za to


    --------------
    >> 20/07/2021 00.10.00
    UPLOADER: dakujem pekne
    takto vyzeraju vsetky moje torrenty


    Back

    Na serveru se nenalézají zádne soubory. Za odkazy jsou výhradně zodpovědní uzivatelé a návstěvníci tohoto trackeru. Administrátor není zodpovědný za pridaný obsah ani za skody zpusobené uzivateli. Rozsirovat stránku nebo její obsah bez souhlasu ownera je zakázano. Nesmíte pouzívat tuto webovou stránku pro distribuovaní nebo download zádného materiálu pokud nemáte povolení od príslusného vlastníka práv. Uzivatelé jsou zodpovědní za dodrzování těchto pravidel a podmínek. Owner má právo kdykoliv změnit pravidla tohoto trackeru.

    [ Script trval: 0.022 sec. ] - [ GZIP: enabled ]
    Je zhruba 14:42

    TOPlist