Tvoj účet nieje VIP.
Preto sú tvoje funkcie a možnosti značne obmedzené.
Pre aktiváciu VIP klikni sem.

Pochoduj nebo zemri / March or Die (1977)(HD)(720p)(x264)(EN-CZ) = CSFD 73% | SkTorrent.eu

Cz-SkTorrent open Tracker, na volné zdielanie súborov. Pridajte sa k nasej komunite a získajte pristup k tisícom torrentov.

  • vysoká rýchlost
  • úplne zdarma
  • prevazne Slovenska a Ceska scena
  • ste tu s nami uz 5 rokov - Dakujeme
  • Vitaj Guest (Login) Ako stahovat
    torrenty?
    Torrenty:
    v1 textová
    v2 obrázková
    v3 online filmy
    Ako sa stat
    Uploaderom
    Online
    Filmy
    Forum
    Pravidlá
    BitTorrent
    klient
    Meno: Heslo:
    Zaregistrovat
    Po zaregistrovaní mozte volne stahovat
    Zabudol som heslo

    Torrent's details
    Pochoduj nebo zemri / March or Die (1977)(HD)(720p)(x264)(EN-CZ) = CSFD 73% Názov:Pochoduj nebo zemri / March or Die (1977)(HD)(720p)(x264)(EN-CZ) = CSFD 73% Hodnocení: Stiahnut
    Pozriet Online
    Kategória:Filmy CZ/SK dabing Velikost:2.4 GB BitTorrent klient
    Pridaný: Súbory:
    Skontrolován:2022-06-28 Peerov:5 (Seed: 5, Leech: 0)
    Zaner:Dobrodruzny,Drama,Romanticky,Valecny Uploader:Uvidis, az ked budes
    VIP
    Kúp nám Pivo 1,10€

    Kúp nám Pivo
    Podporte nas na Facebooku !
    Pridaj do zalozky
    Pridaj do zalozky






    [center]






    Movie Name: March or Die (1977)
    IMDb Rating: 6.2/10

    Quality: 720p (Webrip/DVDrip)
    Language: English (AAC 2.0) Czech (AAC 2.0)
    Subtitles: -
    Director: Dick Richards
    Writers: David Zelag Goodman (story) Dick Richards (story)
    Genres: Adventure | Romance | Drama |


    During the 1920s, French Foreign Legion Major William Foster's (Gene Hackman's) unit is protecting an archaeological dig, but the discovery of an Arab sacred burial site prompts the angry Arab tribes to attack Foster's small garrison.
    ***
    Když doráží major Foster (Gene Hackman) v listopadu roku 1918 se svými muži na jedno pařížské nádraží, z 8000 legionářů, kteří s ním šli do boje, zbývá 200 mužů. Už na nádraží probíhá nábor nových vojáků. Jedním z nich je i Marco Segrain (Terence Hill), zatčený zloděj šperků, kterému se podařilo utéci svým strážcům. Sám Foster je Američanem. Po krvavém nasazení na frontě první světové války je jeho jednotka poslána do Maroka, kde má bránit vykopávky proti nepřátelským beduínským kmenům.






    [/center]

    Format                                   : Matroska
    Format version                           : Version 4
    File size                                : 2.43 GiB
    Duration                                 : 1 h 42 min
    Overall bit rate                         : 3 398 kb/s
    Movie name                               : March or Die (1977)(HD)(720p)(x264)(EN-CZ) PHDTeam
    Encoded date                             : UTC 2022-06-12 18:53:56
    Writing application                      : mkvmerge v68.0.0 ('The Curtain') 64-bit
    Writing library                          : libebml v1.4.2 + libmatroska v1.6.4 / Lavf58.44.100

    Video
    ID                                       : 1
    Format                                   : AVC
    Format/Info                              : Advanced Video Codec
    Format profile                           : Main@L4.2
    Format settings                          : CABAC / 1 Ref Frames
    Format settings, CABAC                   : Yes
    Format settings, Reference frames        : 1 frame
    Format settings, GOP                     : M=1, N=30
    Codec ID                                 : V_MPEG4/ISO/AVC
    Duration                                 : 1 h 42 min
    Bit rate                                 : 3 129 kb/s
    Width                                    : 1 280 pixels
    Height                                   : 720 pixels
    Display aspect ratio                     : 16:9
    Frame rate mode                          : Constant
    Frame rate                               : 30.000 FPS
    Standard                                 : Component
    Color space                              : YUV
    Chroma subsampling                       : 4:2:0
    Bit depth                                : 8 bits
    Scan type                                : Progressive
    Bits/(Pixel*Frame)                       : 0.113
    Stream size                              : 2.24 GiB (92%)
    Title                                    : March or Die (1977)(HD)(720p)(x264)(EN-CZ) PHDTeam
    Default                                  : Yes
    Forced                                   : No
    Color range                              : Full
    colour_range_Original                    : Limited

    Audio #1
    ID                                       : 2
    Format                                   : AAC LC
    Format/Info                              : Advanced Audio Codec Low Complexity
    Codec ID                                 : A_AAC-2
    Duration                                 : 1 h 42 min
    Bit rate                                 : 128 kb/s
    Channel(s)                               : 2 channels
    Channel layout                           : L R
    Sampling rate                            : 44.1 kHz
    Frame rate                               : 43.066 FPS (1024 SPF)
    Compression mode                         : Lossy
    Delay relative to video                  : -46 ms
    Stream size                              : 93.7 MiB (4%)
    Language                                 : Czech
    Default                                  : Yes
    Forced                                   : No

    Audio #2
    ID                                       : 3
    Format                                   : AAC LC
    Format/Info                              : Advanced Audio Codec Low Complexity
    Codec ID                                 : A_AAC-2
    Duration                                 : 1 h 42 min
    Bit rate                                 : 128 kb/s
    Channel(s)                               : 2 channels
    Channel layout                           : L R
    Sampling rate                            : 44.1 kHz
    Frame rate                               : 43.066 FPS (1024 SPF)
    Compression mode                         : Lossy
    Delay relative to video                  : -46 ms
    Stream size                              : 93.7 MiB (4%)
    Language                                 : English
    Default                                  : No
    Forced                                   : No











    pohee, Premca, Vatral, Hebrejec, raruu, kandurAlex, CornelSulla,

    + Pridaj vlastnu verziu tohto torrentu +


    Upozornenie:
    Ziadny zo zobrazených súborov sa nenachádza na tomto serveri. Server slúzi len k síreniu vlastnorucne vytvorených aplikácií, videí, hudby ai. Autori stránok nenesú ziadnu zodpovednost za zverejnené odkazy, komentáre a obsah súborov. Vsetky komentáre, odkazy, súbory ktoré by svojou povahou mohli byt v rozpore zo zákonmi sem vkladáte na vlastnú zodpovednost. Autori stránok si vyhradzujú právo cenzúry odkazov, komentárov príp. súborov, ktoré by svojou povahou mohli byt v rozpore zo zákonmi a dobrými mravmi. Dodrzujte pravidlá!


    No comments...


    Back

    Na serveru se nenalézají zádne soubory. Za odkazy jsou výhradně zodpovědní uzivatelé a návstěvníci tohoto trackeru. Administrátor není zodpovědný za pridaný obsah ani za skody zpusobené uzivateli. Rozsirovat stránku nebo její obsah bez souhlasu ownera je zakázano. Nesmíte pouzívat tuto webovou stránku pro distribuovaní nebo download zádného materiálu pokud nemáte povolení od príslusného vlastníka práv. Uzivatelé jsou zodpovědní za dodrzování těchto pravidel a podmínek. Owner má právo kdykoliv změnit pravidla tohoto trackeru.

    [ Script trval: 0.027 sec. ] - [ GZIP: enabled ]
    Je zhruba 05:01
    sql

    TOPlist