Tvoj účet nieje VIP.
Preto sú tvoje funkcie a možnosti značne obmedzené.
Pre aktiváciu VIP klikni sem.

Pomada / Grease (1978)(CZ) = CSFD 82% | SkTorrent.eu

Cz-SkTorrent open Tracker, na volné zdielanie súborov. Pridajte sa k nasej komunite a získajte pristup k tisícom torrentov.

  • vysoká rýchlost
  • úplne zdarma
  • prevazne Slovenska a Ceska scena
  • ste tu s nami uz 5 rokov - Dakujeme
  • Vitaj Guest (Login) Ako stahovat
    torrenty?
    Torrenty:
    v1 textová
    v2 obrázková
    Ako sa stat
    Uploaderom
    Online
    Filmy
    Forum
    Pravidlá
    BitTorrent
    klient
    Meno: Heslo:
    Zaregistrovat
    Po zaregistrovaní mozte volne stahovat
    Zabudol som heslo

    Pomada / Grease (1978)(CZ) = CSFD 82% Názov:Pomada / Grease (1978)(CZ) = CSFD 82% Hodnocení: Stiahnut
    Pozriet Online
    Kategória:Filmy CZ/SK dabing Velikost:2.1 GB BitTorrent klient
    Pridaný: Súbory:
    Skontrolován:2014-01-11 Peerov:1 (Seed: 0, Leech: 1)
    Zaner:Komedie,Muzikal,Romanticky Uploader:Uvidis, az ked budes
    VIP
    Kúp nám Pivo 1,10€

    Kúp nám Pivo
    Pridaj do zalozky
    Pridaj do zalozky




    Jazyk: český, anglický
    Titulky: Ne.
    Rok vydání: 1978
    Délka: 105 minut
    Žánr: Komedie / Muzikál / Romantický
    Odkaz: http://www.csfd.cz/film/16442-pomada/

    Obrázek:

    MediaInfo:
    General
    Complete name                            : Z:\5. US filmy Cz dabing 87 GB\Pomáda (audio Eng-czech).divx
    Format                                   : AVI
    Format/Info                              : Audio Video Interleave
    File size                                : 2.10 GiB
    Duration                                 : 1h 45mn
    Overall bit rate                         : 2 835 Kbps

    Video
    ID                                       : 0
    Format                                   : MPEG-4 Visual
    Format settings, BVOP                    : 1
    Format settings, QPel                    : No
    Format settings, GMC                     : No warppoints
    Format settings, Matrix                  : Default (H.263)
    Muxing mode                              : Packed bitstream
    Codec ID                                 : DX50
    Codec ID/Hint                            : DivX 5
    Duration                                 : 1h 45mn
    Bit rate                                 : 2 500 Kbps
    Width                                    : 1 024 pixels
    Height                                   : 432 pixels
    Display aspect ratio                     : 2.40:1
    Frame rate                               : 25.000 fps
    Color space                              : YUV
    Chroma subsampling                       : 4:2:0
    Bit depth                                : 8 bits
    Scan type                                : Progressive
    Compression mode                         : Lossy
    Bits/(Pixel*Frame)                       : 0.226
    Stream size                              : 1.85 GiB (88%)
    Title                                    : Video
    Writing library                          : DivX 6.8.5 (UTC 2009-08-20)

    Audio #1
    ID                                       : 1
    Format                                   : MPEG Audio
    Format version                           : Version 1
    Format profile                           : Layer 3
    Mode                                     : Joint stereo
    Codec ID                                 : 55
    Codec ID/Hint                            : MP3
    Duration                                 : 1h 45mn
    Bit rate mode                            : Constant
    Bit rate                                 : 160 Kbps
    Channel(s)                               : 2 channels
    Sampling rate                            : 48.0 KHz
    Compression mode                         : Lossy
    Stream size                              : 121 MiB (6%)
    Alignment                                : Split accross interleaves
    Interleave, duration                     : 40 ms (1.00 video frame)
    Interleave, preload duration             : 500 ms
    Title                                    : Audio
    Writing library                          : LAME3.92

    Audio #2
    ID                                       : 2
    Format                                   : MPEG Audio
    Format version                           : Version 1
    Format profile                           : Layer 3
    Mode                                     : Joint stereo
    Codec ID                                 : 55
    Codec ID/Hint                            : MP3
    Duration                                 : 1h 45mn
    Bit rate mode                            : Constant
    Bit rate                                 : 160 Kbps
    Channel(s)                               : 2 channels
    Sampling rate                            : 48.0 KHz
    Compression mode                         : Lossy
    Stream size                              : 121 MiB (6%)
    Alignment                                : Split accross interleaves
    Interleave, duration                     : 40 ms (1.00 video frame)
    Interleave, preload duration             : 500 ms
    Title                                    : Audio
    Writing library                          : LAME3.92



    Popis:
    John Travolta a Olivia Newton-Johnová v hlavních rolích slavného amerického muzikálu.
    Americký muzikál Pomáda z roku 1978 patřil v době svého uvedení k nejnavštěvovanějším snímkům ve všech zemích. Vznikl podle úspěšné jevištní předlohy Jima Jacobse a Warrena Caseyho. Děj nás zavede do střední školy Rydell v padesátých letech. Danny Zucco, žák posledního ročníku, se po prázdninách opět setkává se svými kamarády. Ohromí je líčením svého milostného dobrodružství u moře. Mezi dívkami se objevuje nová žákyně Sandy. I ona se pochlubí svým prázdninovým setkáním s fantastickým chlapcem, s nímž prožila krásný milostný příběh. Když se "letní milenci" náhle setkají na Rydellu tváří v tvář, téměř ztratí dech. Jenomže láska v novém prostředí školy a spousty kamarádů má úplně jiná pravidla než na osamělé mořské pláži. V hlavní roli zpívá, hraje a tančí populární dvojice John Travolta a Olivia Newton-Johnová, kteří se tímto snímkem stali idoly mladé generace.



    ONLINE




    Upozornenie:
    Ziadny zo zobrazených súborov sa nenachádza na tomto serveri. Server slúzi len k síreniu vlastnorucne vytvorených aplikácií, videí, hudby ai. Autori stránok nenesú ziadnu zodpovednost za zverejnené odkazy, komentáre a obsah súborov. Vsetky komentáre, odkazy, súbory ktoré by svojou povahou mohli byt v rozpore zo zákonmi sem vkladáte na vlastnú zodpovednost. Autori stránok si vyhradzujú právo cenzúry odkazov, komentárov príp. súborov, ktoré by svojou povahou mohli byt v rozpore zo zákonmi a dobrými mravmi. Dodrzujte pravidlá!


    No comments...


    Back

    Na serveru se nenalézají zádne soubory. Za odkazy jsou výhradně zodpovědní uzivatelé a návstěvníci tohoto trackeru. Administrátor není zodpovědný za pridaný obsah ani za skody zpusobené uzivateli. Nesmíte pouzívat tuto webovou stránku pro distribuovaní nebo download zádného materiálu pokud nemáte povolení od príslusného vlastníka práv. Uzivatelé jsou zodpovědní za dodrzování těchto pravidel a podmínek. Owner má právo kdykoliv změnit pravidla tohoto trackeru.

    [ Script trval: 0.021 sec. ] - [ GZIP: enabled ]
    Je zhruba 17:47
    sql

    TOPlist