Tvoj účet nieje VIP.
Preto sú tvoje funkcie a možnosti značne obmedzené.
Pre aktiváciu VIP klikni sem.

Pomada / Grease (1978)(Mastered)(Hevc)(1080p)(BluRay)(English-CZ) = CSFD 82% | SkTorrent.eu

Cz-SkTorrent open Tracker, na volné zdielanie súborov. Pridajte sa k nasej komunite a získajte pristup k tisícom torrentov.

  • vysoká rýchlost
  • úplne zdarma
  • prevazne Slovenska a Ceska scena
  • ste tu s nami uz 5 rokov - Dakujeme
  • Vitaj Guest (Login) Ako stahovat
    torrenty?
    Torrenty:
    v1 textová
    v2 obrázková
    v3 online filmy
    Ako sa stat
    Uploaderom
    Online
    Filmy
    Forum
    Pravidlá
    BitTorrent
    klient
    Meno: Heslo:
    Zaregistrovat
    Po zaregistrovaní mozte volne stahovat
    Zabudol som heslo

    Torrent's details
    Pomada / Grease (1978)(Mastered)(Hevc)(1080p)(BluRay)(English-CZ) = CSFD 82% Názov:Pomada / Grease (1978)(Mastered)(Hevc)(1080p)(BluRay)(English-CZ) = CSFD 82% Hodnocení: Stiahnut
    Pozriet Online
    Kategória:Filmy CZ/SK dabing Velikost:1.6 GB BitTorrent klient
    Pridaný: Súbory:
    Skontrolován:2022-04-04 Peerov:12 (Seed: 12, Leech: 0)
    Zaner:Komedie,Muzikal,Romanticky Uploader:Uvidis, az ked budes
    VIP
    Kúp nám Pivo 1,10€

    Kúp nám Pivo
    Podporte nas na Facebooku !
    Pridaj do zalozky
    Pridaj do zalozky






    [center]





    Movie Name: Grease (1978)(Mastered
    IMDb Rating: 7.2/10

    Quality: 1080p (BluRay)
    Language: English (AAC 5.1) Czech (AAC 2.0)
    Subtitles: English/Czech
    Director: Randal Kleiser
    Writers: Jim Jacobs (based on the original musical by) Warren Casey (based on the original musical by) Bronte Woodard (screenplay by)
    Genres: Comedy | Romance | Musical


    Good girl Sandy Olsson and greaser Danny Zuko fell in love over the summer. When they unexpectedly discover they're now in the same high school, will they be able to rekindle their romance?
    ***
    Americký muzikál Pomáda z roku 1978 patřil v době svého uvedení k nejnavštěvovanějším snímkům ve všech zemích. Vznikl podle úspěšné jevištní předlohy Jima Jacobse a Warrena Caseyho. Děj nás zavede do střední školy Rydell v padesátých letech. Danny Zucco, žák posledního ročníku, se po prázdninách opět setkává se svými kamarády. Ohromí je líčením svého milostného dobrodružství u moře. Mezi dívkami se objevuje nová žákyně Sandy. I ona se pochlubí svým prázdninovým setkáním s fantastickým chlapcem, s nímž prožila krásný milostný příběh. Když se "letní milenci" náhle setkají na Rydellu tváří v tvář, téměř ztratí dech. Jenomže láska v novém prostředí školy a spousty kamarádů má úplně jiná pravidla než na osamělé mořské pláži. V hlavní roli zpívá, hraje a tančí populární dvojice John Travolta a Olivia Newton-Johnová, kteří se tímto snímkem stali idoly mladé generace.






    [/center]

    Format                                   : Matroska
    Format version                           : Version 4
    File size                                : 1.64 GiB
    Duration                                 : 1 h 50 min
    Overall bit rate                         : 2 121 kb/s
    Encoded date                             : UTC 2021-11-20 06:51:51
    Writing application                      : mkvmerge v60.0.0 ('Are We Copies?') 64-bit
    Writing library                          : libebml v1.4.2 + libmatroska v1.6.4
    Cover                                    : Yes
    Attachments                              : cover.jpg

    Video
    ID                                       : 1
    Format                                   : HEVC
    Format/Info                              : High Efficiency Video Coding
    Format profile                           : Main 10@L4@Main
    Codec ID                                 : V_MPEGH/ISO/HEVC
    Duration                                 : 1 h 50 min
    Bit rate                                 : 1 799 kb/s
    Width                                    : 1 920 pixels
    Height                                   : 800 pixels
    Display aspect ratio                     : 2.40:1
    Frame rate mode                          : Constant
    Frame rate                               : 23.976 (24000/1001) FPS
    Color space                              : YUV
    Chroma subsampling                       : 4:2:0
    Bit depth                                : 10 bits
    Bits/(Pixel*Frame)                       : 0.049
    Stream size                              : 1.39 GiB (85%)
    Writing library                          : x265 1.5+88-0e89af0781ee:[Windows][GCC 4.8.2][64 bit] 16bpp
    Encoding settings                        : wpp / ctu=64 / min-cu-size=8 / max-tu-size=32 / tu-intra-depth=1 / tu-inter-depth=1 / me=2 / subme=3 / merange=57 / no-rect / no-amp / max-merge=3 / temporal-mvp / no-early-skip / rdpenalty=0 / no-tskip / no-tskip-fast / strong-intra-smoothing / no-lossless / no-cu-lossless / no-constrained-intra / no-fast-intra / open-gop / no-temporal-layers / interlace=0 / keyint=240 / min-keyint=23 / scenecut=40 / rc-lookahead=20 / bframes=4 / bframe-bias=0 / b-adapt=2 / ref=3 / weightp / no-weightb / aq-mode=1 / aq-strength=1.00 / cbqpoffs=0 / crqpoffs=0 / rd=3 / psy-rd=0.60 / psy-rdoq=0.00 / signhide / lft / no-sao / no-sao-non-deblock / b-pyramid / cutree / rc=2 / pass / bitrate=1800 / qcomp=0.60 / qpmin=0 / qpmax=51 / qpstep=4 / cplxblur=20.0 / qblur=0.5 / ipratio=1.40 / pbratio=1.30
    Default                                  : Yes
    Forced                                   : No

    Audio #1
    ID                                       : 2
    Format                                   : AAC LC SBR
    Format/Info                              : Advanced Audio Codec Low Complexity with Spectral Band Replication
    Commercial name                          : HE-AAC
    Format settings                          : Explicit
    Codec ID                                 : A_AAC-2
    Duration                                 : 1 h 50 min
    Bit rate                                 : 224 kb/s
    Channel(s)                               : 6 channels
    Channel layout                           : C L R Ls Rs LFE
    Sampling rate                            : 48.0 kHz
    Frame rate                               : 23.438 FPS (2048 SPF)
    Compression mode                         : Lossy
    Delay relative to video                  : 31 ms
    Stream size                              : 177 MiB (11%)
    Language                                 : English
    Default                                  : Yes
    Forced                                   : No

    Audio #2
    ID                                       : 3
    Format                                   : AAC LC SBR
    Format/Info                              : Advanced Audio Codec Low Complexity with Spectral Band Replication
    Commercial name                          : HE-AAC
    Format settings                          : Explicit
    Codec ID                                 : A_AAC-2
    Duration                                 : 1 h 50 min
    Bit rate                                 : 96.0 kb/s
    Channel(s)                               : 2 channels
    Channel layout                           : L R
    Sampling rate                            : 48.0 kHz
    Frame rate                               : 23.438 FPS (2048 SPF)
    Compression mode                         : Lossy
    Delay relative to video                  : 31 ms
    Stream size                              : 75.0 MiB (4%)
    Language                                 : Czech
    Default                                  : No
    Forced                                   : No

    Text #1
    ID                                       : 4
    Format                                   : UTF-8
    Codec ID                                 : S_TEXT/UTF8
    Codec ID/Info                            : UTF-8 Plain Text
    Duration                                 : 1 h 47 min
    Bit rate                                 : 63 b/s
    Count of elements                        : 1544
    Stream size                              : 49.8 KiB (0%)
    Language                                 : Czech
    Default                                  : Yes
    Forced                                   : No

    Text #2
    ID                                       : 5
    Format                                   : UTF-8
    Codec ID                                 : S_TEXT/UTF8
    Codec ID/Info                            : UTF-8 Plain Text
    Duration                                 : 1 h 50 min
    Bit rate                                 : 84 b/s
    Count of elements                        : 1845
    Stream size                              : 68.4 KiB (0%)
    Language                                 : English
    Default                                  : No
    Forced                                   : No

    Menu
    00:00:00.000                             : :Grease
    00:05:24.741                             : :Rule the School
    00:13:09.205                             : :Summer Nights
    00:18:47.209                             : :Cruisin' for a Bruisin'
    00:25:03.794                             : :Look at Me, I'm Sandra Dee
    00:32:54.723                             : :Hopelessly Devoted To You
    00:38:18.713                             : :Greased Lightning
    00:45:19.050                             : :New Man
    00:54:36.148                             : :Beauty School Drop Out
    01:00:11.525                             : :National Bandstand
    01:12:16.832                             : :Hand Jive
    01:17:33.274                             : :Blue Moon
    01:18:47.306                             : :Sandy
    01:26:06.328                             : :There Are Worse Things I Could Do
    01:30:53.698                             : :Thunder Road
    01:37:52.325                             : :You're The One That I Want
    01:45:16.852                             : :We Go Together
    01:48:16.865                             : :End Credits






    ONLINE











    kelot, 666, Nightroad, jardakol, evicak, sa58, pohee, PetrJaros,

    + Pridaj vlastnu verziu tohto torrentu +


    Upozornenie:
    Ziadny zo zobrazených súborov sa nenachádza na tomto serveri. Server slúzi len k síreniu vlastnorucne vytvorených aplikácií, videí, hudby ai. Autori stránok nenesú ziadnu zodpovednost za zverejnené odkazy, komentáre a obsah súborov. Vsetky komentáre, odkazy, súbory ktoré by svojou povahou mohli byt v rozpore zo zákonmi sem vkladáte na vlastnú zodpovednost. Autori stránok si vyhradzujú právo cenzúry odkazov, komentárov príp. súborov, ktoré by svojou povahou mohli byt v rozpore zo zákonmi a dobrými mravmi. Dodrzujte pravidlá!





    0
    omegan
    Ratio 5.74

    VIP

    04/04/2022 21.00.27
    Ospravedlnujem sa, teraz som to pustil a je tam Trávníček



    --------------
    >> 04/04/2022 21.16.05
    UPLOADER: Tak máš cos cekal

    0
    omegan
    Ratio 5.74

    VIP

    04/04/2022 20.50.52
    Skoda, ze je tam novy dabing, povodny bol skvely


    --------------
    >> 04/04/2022 20.53.49
    UPLOADER: Na bd je iný.. pravda.


    Back

    Na serveru se nenalézají zádne soubory. Za odkazy jsou výhradně zodpovědní uzivatelé a návstěvníci tohoto trackeru. Administrátor není zodpovědný za pridaný obsah ani za skody zpusobené uzivateli. Rozsirovat stránku nebo její obsah bez souhlasu ownera je zakázano. Nesmíte pouzívat tuto webovou stránku pro distribuovaní nebo download zádného materiálu pokud nemáte povolení od príslusného vlastníka práv. Uzivatelé jsou zodpovědní za dodrzování těchto pravidel a podmínek. Owner má právo kdykoliv změnit pravidla tohoto trackeru.

    [ Script trval: 0.400 sec. ] - [ GZIP: enabled ]
    Je zhruba 20:43
    sql

    TOPlist