Tvoj účet nieje VIP.
Preto sú tvoje funkcie a možnosti značne obmedzené.
Pre aktiváciu VIP klikni sem.

| SkTorrent.eu

Cz-SkTorrent open Tracker, na volné zdielanie súborov. Pridajte sa k nasej komunite a získajte pristup k tisícom torrentov.

  • vysoká rýchlost
  • úplne zdarma
  • prevazne Slovenska a Ceska scena
  • ste tu s nami uz 5 rokov - Dakujeme
  • Vitaj Guest (Login) Ako stahovat
    torrenty?
    Torrenty:
    v1 textová
    v2 obrázková
    v3 online filmy
    Ako sa stat
    Uploaderom
    Online
    Filmy
    Forum
    Pravidlá
    BitTorrent
    klient
    Meno: Heslo:
    Zaregistrovat
    Po zaregistrovaní mozte volne stahovat
    Zabudol som heslo

    Torrent's details
    Posledni Mohykan / The Last of the Mohicans (Director´s Cut)(1992)(FHD)(1080p)(BRrip)(x264)(EN-CZ-TR)(MultiSub) PHDTeam = CSFD 85% Názov:Posledni Mohykan / The Last of the Mohicans (Director´s Cut)(1992)(FHD)(1080p)(BRrip)(x264)(EN-CZ-TR)(MultiSub) PHDTeam = CSFD 85% Hodnocení:N/A Stiahnut
    Pozriet Online
    Kategória:HD Filmy Velikost:5.6 GB BitTorrent klient
    Pridaný: Súbory:
    Skontrolován:2022-08-02 Peerov:17 (Seed: 17, Leech: 0)
    Zaner:Akcni,Dobrodruzny,Drama,Romanticky Uploader:Uvidis, az ked budes
    VIP
    Kúp nám Pivo 1,10€

    Kúp nám Pivo
    Podporte nas na Facebooku !
    Pridaj do zalozky
    Pridaj do zalozky






    [center]





    Movie Name: The Last of the Mohicans (Director´s Cut) (1992)
    IMDb Rating: 7.7/10

    Quality: 1080p (BluRay)
    Language: E-AC-3 5.1 640kb/s + DTS -  English ,  Czech
    E-AC-3 2.0 128 kb/s - Turkish  , Czech , English
    Subtitles: Multi
    Director: Michael Mann
    Writers: Michael Mann, Christopher Crowe, Philip Dunne, James Fenimore Cooper (Book)
    Genres: Action | Adventure | Drama |


    Three trappers protect the daughters of a British Colonel in the midst of the French and Indian War.




    [/center]

    Format                                   : Matroska
    Format version                           : Version 4
    File size                                : 5.64 GiB
    Duration                                 : 1 h 54 min
    Overall bit rate mode                    : Variable
    Overall bit rate                         : 7 047 kb/s
    Movie name                               : The Last of the Mohicans (Director´s Cut) (1992)(FHD)(1080p)(BRrip)(x264)(EN-CZ-TR)(MultiSub) PHDTeam
    Encoded date                             : UTC 2022-08-02 20:17:24
    Writing application                      : mkvmerge v69.0.0 ('Day And Age') 64-bit
    Writing library                          : libebml v1.4.2 + libmatroska v1.6.4

    Video
    ID                                       : 1
    Format                                   : AVC
    Format/Info                              : Advanced Video Codec
    Format profile                           : High@L5
    Format settings                          : CABAC / 5 Ref Frames
    Format settings, CABAC                   : Yes
    Format settings, Reference frames        : 5 frames
    Codec ID                                 : V_MPEG4/ISO/AVC
    Duration                                 : 1 h 54 min
    Bit rate                                 : 1 685 kb/s
    Width                                    : 1 920 pixels
    Height                                   : 1 080 pixels
    Display aspect ratio                     : 16:9
    Frame rate mode                          : Constant
    Frame rate                               : 23.976 (24000/1001) FPS
    Color space                              : YUV
    Chroma subsampling                       : 4:2:0
    Bit depth                                : 8 bits
    Scan type                                : Progressive
    Bits/(Pixel*Frame)                       : 0.034
    Stream size                              : 1.35 GiB (24%)
    Title                                    : The Last of the Mohicans (Director´s Cut) (1992)(FHD)(1080p)(BRrip)(x264)(EN-CZ-TR)(MultiSub) PHDTeam
    Writing library                          : x264 core 120 r2164 da19765
    Encoding settings                        : cabac=1 / ref=5 / deblock=1:-2:-1 / analyse=0x3:0x113 / me=umh / subme=5 / psy=1 / psy_rd=1.00:0.00 / mixed_ref=1 / me_range=16 / chroma_me=1 / trellis=1 / 8x8dct=1 / cqm=0 / deadzone=21,11 / fast_pskip=1 / chroma_qp_offset=0 / threads=12 / sliced_threads=0 / nr=0 / decimate=1 / interlaced=0 / bluray_compat=0 / constrained_intra=0 / bframes=16 / b_pyramid=2 / b_adapt=1 / b_bias=0 / direct=3 / weightb=1 / open_gop=0 / weightp=2 / keyint=240 / keyint_min=23 / scenecut=40 / intra_refresh=0 / rc=2pass / mbtree=0 / bitrate=1685 / ratetol=1.0 / qcomp=0.60 / qpmin=10 / qpmax=51 / qpstep=4 / cplxblur=20.0 / qblur=0.5 / ip_ratio=1.40 / pb_ratio=1.30 / aq=2:1.00
    Language                                 : English
    Default                                  : Yes
    Forced                                   : Yes

    Audio #1
    ID                                       : 2
    Format                                   : AC-3
    Format/Info                              : Audio Coding 3
    Commercial name                          : Dolby Digital
    Codec ID                                 : A_AC3
    Duration                                 : 1 h 54 min
    Bit rate mode                            : Constant
    Bit rate                                 : 640 kb/s
    Channel(s)                               : 6 channels
    Channel layout                           : L R C LFE Ls Rs
    Sampling rate                            : 48.0 kHz
    Frame rate                               : 31.250 FPS (1536 SPF)
    Compression mode                         : Lossy
    Stream size                              : 524 MiB (9%)
    Title                                    : Czech   DD 5.1
    Language                                 : Czech
    Service kind                             : Complete Main
    Default                                  : Yes
    Forced                                   : No

    Audio #2
    ID                                       : 3
    Format                                   : DTS XLL
    Format/Info                              : Digital Theater Systems
    Commercial name                          : DTS-HD Master Audio
    Codec ID                                 : A_DTS
    Duration                                 : 1 h 54 min
    Bit rate mode                            : Variable
    Bit rate                                 : 3 818 kb/s
    Channel(s)                               : 6 channels
    Channel layout                           : C L R Ls Rs LFE
    Sampling rate                            : 48.0 kHz
    Frame rate                               : 93.750 FPS (512 SPF)
    Bit depth                                : 24 bits
    Compression mode                         : Lossless
    Stream size                              : 3.05 GiB (54%)
    Title                                    : English   DTS-HD MA 5.1
    Language                                 : English
    Default                                  : No
    Forced                                   : No

    Audio #3
    ID                                       : 4
    Format                                   : AC-3
    Format/Info                              : Audio Coding 3
    Commercial name                          : Dolby Digital
    Codec ID                                 : A_AC3
    Duration                                 : 1 h 54 min
    Bit rate mode                            : Constant
    Bit rate                                 : 448 kb/s
    Channel(s)                               : 6 channels
    Channel layout                           : L R C LFE Ls Rs
    Sampling rate                            : 48.0 kHz
    Frame rate                               : 31.250 FPS (1536 SPF)
    Compression mode                         : Lossy
    Stream size                              : 367 MiB (6%)
    Title                                    : English   DD 5.1
    Language                                 : English
    Service kind                             : Complete Main
    Default                                  : Yes
    Forced                                   : No

    Audio #4
    ID                                       : 5
    Format                                   : AC-3
    Format/Info                              : Audio Coding 3
    Commercial name                          : Dolby Digital
    Codec ID                                 : A_AC3
    Duration                                 : 1 h 54 min
    Bit rate mode                            : Constant
    Bit rate                                 : 192 kb/s
    Channel(s)                               : 2 channels
    Channel layout                           : L R
    Sampling rate                            : 48.0 kHz
    Frame rate                               : 31.250 FPS (1536 SPF)
    Compression mode                         : Lossy
    Stream size                              : 157 MiB (3%)
    Title                                    : CZ
    Language                                 : Czech
    Service kind                             : Complete Main
    Default                                  : No
    Forced                                   : Yes

    Audio #5
    ID                                       : 6
    Format                                   : AAC LC SBR
    Format/Info                              : Advanced Audio Codec Low Complexity with Spectral Band Replication
    Commercial name                          : HE-AAC
    Format settings                          : Explicit
    Codec ID                                 : A_AAC-2
    Duration                                 : 1 h 54 min
    Bit rate                                 : 64.0 kb/s
    Channel(s)                               : 2 channels
    Channel layout                           : L R
    Sampling rate                            : 22.05 kHz
    Frame rate                               : 10.767 FPS (2048 SPF)
    Compression mode                         : Lossy
    Stream size                              : 52.4 MiB (1%)
    Title                                    : EN
    Language                                 : English
    Default                                  : No
    Forced                                   : No

    Audio #6
    ID                                       : 7
    Format                                   : AAC LC
    Format/Info                              : Advanced Audio Codec Low Complexity
    Codec ID                                 : A_AAC-2
    Duration                                 : 1 h 54 min
    Bit rate                                 : 66.2 kb/s
    Channel(s)                               : 2 channels
    Channel layout                           : L R
    Sampling rate                            : 48.0 kHz
    Frame rate                               : 46.875 FPS (1024 SPF)
    Compression mode                         : Lossy
    Stream size                              : 53.3 MiB (1%)
    Language                                 : Turkish
    Default                                  : No
    Forced                                   : No

    Audio #7
    ID                                       : 8
    Format                                   : MPEG Audio
    Format version                           : Version 2
    Format profile                           : Layer 3
    Format settings                          : Joint stereo / MS Stereo
    Codec ID                                 : A_MPEG/L3
    Codec ID/Hint                            : MP3
    Duration                                 : 1 h 54 min
    Bit rate mode                            : Constant
    Bit rate                                 : 128 kb/s
    Channel(s)                               : 2 channels
    Sampling rate                            : 22.05 kHz
    Frame rate                               : 38.281 FPS (576 SPF)
    Compression mode                         : Lossy
    Stream size                              : 105 MiB (2%)
    Writing library                          : LAME3.99.5
    Default                                  : No
    Forced                                   : No

    Text #1
    ID                                       : 9
    Format                                   : UTF-8
    Codec ID                                 : S_TEXT/UTF8
    Codec ID/Info                            : UTF-8 Plain Text
    Duration                                 : 1 h 37 min
    Bit rate                                 : 2 b/s
    Count of elements                        : 46
    Stream size                              : 2.04 KiB (0%)
    Title                                    : Czech - forced
    Language                                 : Czech
    Default                                  : Yes
    Forced                                   : Yes

    Text #2
    ID                                       : 10
    Format                                   : UTF-8
    Codec ID                                 : S_TEXT/UTF8
    Codec ID/Info                            : UTF-8 Plain Text
    Duration                                 : 1 h 47 min
    Bit rate                                 : 24 b/s
    Count of elements                        : 696
    Stream size                              : 19.4 KiB (0%)
    Title                                    : Czech
    Language                                 : Czech
    Default                                  : No
    Forced                                   : No

    Text #3
    ID                                       : 11
    Format                                   : UTF-8
    Codec ID                                 : S_TEXT/UTF8
    Codec ID/Info                            : UTF-8 Plain Text
    Duration                                 : 1 h 43 min
    Bit rate                                 : 35 b/s
    Count of elements                        : 758
    Stream size                              : 26.8 KiB (0%)
    Title                                    : English
    Language                                 : English
    Default                                  : No
    Forced                                   : No

    Text #4
    ID                                       : 12
    Format                                   : PGS
    Muxing mode                              : zlib
    Codec ID                                 : S_HDMV/PGS
    Codec ID/Info                            : Picture based subtitle format used on BDs/HD-DVDs
    Duration                                 : 1 h 54 min
    Bit rate                                 : 11.4 kb/s
    Count of elements                        : 1386
    Stream size                              : 9.28 MiB (0%)
    Title                                    : Czech
    Language                                 : Czech
    Default                                  : No
    Forced                                   : No

    Text #5
    ID                                       : 13
    Format                                   : UTF-8
    Codec ID                                 : S_TEXT/UTF8
    Codec ID/Info                            : UTF-8 Plain Text
    Duration                                 : 1 h 47 min
    Bit rate                                 : 66 b/s
    Count of elements                        : 696
    Stream size                              : 52.1 KiB (0%)
    Title                                    : CZ
    Language                                 : Czech
    Default                                  : No
    Forced                                   : No

    Text #6
    ID                                       : 14
    Format                                   : UTF-8
    Codec ID                                 : S_TEXT/UTF8
    Codec ID/Info                            : UTF-8 Plain Text
    Duration                                 : 1 h 43 min
    Bit rate                                 : 35 b/s
    Count of elements                        : 758
    Stream size                              : 26.8 KiB (0%)
    Title                                    : EN
    Language                                 : English
    Default                                  : No
    Forced                                   : No

    Text #7
    ID                                       : 15
    Format                                   : UTF-8
    Codec ID                                 : S_TEXT/UTF8
    Codec ID/Info                            : UTF-8 Plain Text
    Duration                                 : 1 h 40 min
    Bit rate                                 : 32 b/s
    Count of elements                        : 734
    Stream size                              : 23.7 KiB (0%)
    Title                                    : F
    Language                                 : French
    Default                                  : No
    Forced                                   : No

    Text #8
    ID                                       : 16
    Format                                   : UTF-8
    Codec ID                                 : S_TEXT/UTF8
    Codec ID/Info                            : UTF-8 Plain Text
    Duration                                 : 1 h 43 min
    Bit rate                                 : 35 b/s
    Count of elements                        : 758
    Stream size                              : 26.8 KiB (0%)
    Title                                    : ESP
    Language                                 : Spanish
    Default                                  : No
    Forced                                   : No

    Text #9
    ID                                       : 17
    Format                                   : UTF-8
    Codec ID                                 : S_TEXT/UTF8
    Codec ID/Info                            : UTF-8 Plain Text
    Duration                                 : 1 h 47 min
    Bit rate                                 : 38 b/s
    Count of elements                        : 734
    Stream size                              : 30.2 KiB (0%)
    Title                                    : PT
    Language                                 : Portuguese
    Default                                  : No
    Forced                                   : No

    Text #10
    ID                                       : 18
    Format                                   : UTF-8
    Codec ID                                 : S_TEXT/UTF8
    Codec ID/Info                            : UTF-8 Plain Text
    Duration                                 : 1 h 37 min
    Bit rate                                 : 2 b/s
    Count of elements                        : 47
    Stream size                              : 2.12 KiB (0%)
    Title                                    : forced
    Language                                 : Czech
    Default                                  : No
    Forced                                   : Yes

    Text #11
    ID                                       : 19
    Format                                   : UTF-8
    Codec ID                                 : S_TEXT/UTF8
    Codec ID/Info                            : UTF-8 Plain Text
    Duration                                 : 1 h 47 min
    Bit rate                                 : 37 b/s
    Count of elements                        : 802
    Stream size                              : 29.7 KiB (0%)
    Title                                    : full
    Language                                 : Czech
    Default                                  : No
    Forced                                   : No

    Text #12
    ID                                       : 20
    Format                                   : UTF-8
    Codec ID                                 : S_TEXT/UTF8
    Codec ID/Info                            : UTF-8 Plain Text
    Duration                                 : 1 h 43 min
    Bit rate                                 : 36 b/s
    Count of elements                        : 758
    Stream size                              : 27.3 KiB (0%)
    Title                                    : full
    Language                                 : English
    Default                                  : No
    Forced                                   : No

    Text #13
    ID                                       : 21
    Format                                   : UTF-8
    Codec ID                                 : S_TEXT/UTF8
    Codec ID/Info                            : UTF-8 Plain Text
    Duration                                 : 1 h 47 min
    Bit rate                                 : 38 b/s
    Count of elements                        : 801
    Stream size                              : 30.1 KiB (0%)
    Language                                 : Turkish
    Default                                  : No
    Forced                                   : No
















    MartinZetek, pohee, Lampion104, Threadt, jardakol, Jablonka, kandurAlex, KRAKATOA2691,

    + Pridaj vlastnu verziu tohto torrentu +


    Upozornenie:
    Ziadny zo zobrazených súborov sa nenachádza na tomto serveri. Server slúzi len k síreniu vlastnorucne vytvorených aplikácií, videí, hudby ai. Autori stránok nenesú ziadnu zodpovednost za zverejnené odkazy, komentáre a obsah súborov. Vsetky komentáre, odkazy, súbory ktoré by svojou povahou mohli byt v rozpore zo zákonmi sem vkladáte na vlastnú zodpovednost. Autori stránok si vyhradzujú právo cenzúry odkazov, komentárov príp. súborov, ktoré by svojou povahou mohli byt v rozpore zo zákonmi a dobrými mravmi. Dodrzujte pravidlá!


    No comments...


    Back

    Na serveru se nenalézají zádne soubory. Za odkazy jsou výhradně zodpovědní uzivatelé a návstěvníci tohoto trackeru. Administrátor není zodpovědný za pridaný obsah ani za skody zpusobené uzivateli. Rozsirovat stránku nebo její obsah bez souhlasu ownera je zakázano. Nesmíte pouzívat tuto webovou stránku pro distribuovaní nebo download zádného materiálu pokud nemáte povolení od príslusného vlastníka práv. Uzivatelé jsou zodpovědní za dodrzování těchto pravidel a podmínek. Owner má právo kdykoliv změnit pravidla tohoto trackeru.

    [ Script trval: 0.035 sec. ] - [ GZIP: enabled ]
    Je zhruba 11:36
    sql

    TOPlist