Tvoj účet nieje VIP.
Preto sú tvoje funkcie a možnosti značne obmedzené.
Pre aktiváciu VIP klikni sem.

Prázdniny + Film = CSFD 45% | SkTorrent.eu

Cz-SkTorrent open Tracker, na volné zdieľanie súborov. Pridajte sa k našej komunite a získajte prístup k tisícom torrentov.

  • vysoká rýchlosť
  • úplne zdarma
  • prevažne Slovenská a Česká scéna
  • ste tu s nami už 10 rokov - Ďakujeme
  • Vitaj Guest (Login) Ako stahovat
    torrenty?
    Torrenty:
    v1 textová
    v2 obrázková
    Ako sa stat
    Uploaderom
    Online
    Filmy
    Forum
    Pravidlá
    SkTSocial
    BitTorrent
    klient
    Meno: Heslo:
    Zaregistrovat
    Po zaregistrovaní mozte volne stahovat
    Zabudol som heslo

    Prázdniny + Film = CSFD 45% Názov:Prázdniny + Film = CSFD 45% Hodnocení:N/A Stiahnut
    Pozriet Online
    Kategória:Seriál - Velikost:28.4 GB BitTorrent klient
    Pridaný: Súbory:
    Skontrolován:2024-06-30 Peerov:10 (Seed: 10, Leech: 0)
    Zaner:Komedie,Rodinny Uploader:Uvidis, az ked budes
    VIP
    Kúp nám Pivo 1,10€

    Kúp nám Pivo

    Pridaj do zalozky
    Pridaj do zalozky






    https://www.csfd.cz/film/479164-prazdniny/prehled/


    Popis

    O seriálu
    Bratranci Jano, Laco a Zdeno se rozhodnou na prázdniny naplánovat jedno neuvěřitelné léto. Vezmou všechny své děti a bez manželek odjedou na čtrnáct dní na chalupu. O dobrodružství, které je tam ve skutečnosti čeká, však nemají ani nejmenší tušení… Slovenský rodinný komediální seriál (2017). Hrají T. Matonoha, L. Kostelný, M. Igonda, L. Siposová, Z. Norisová a další. Režie I. Predmerský

    Komedie / Rodinný
    Slovensko, (2017–2020)

    Série(4) / Epizody(40)
    Série 1
    (2017) - 10 epizod
    Série 2
    (2018) - 10 epizod
    Série 3
    (2019) - 10 epizod
    Série 4
    (2020) - 10 epizod


    Video
    ID                                       : 1
    Formát                                   : AVC
    Formát/Info                              : Advanced Video Codec
    Format profile                           : High@L3.1
    Format settings                          : CABAC / 2 Ref Frames
    Format settings, CABAC                   : Ano
    Format settings, Reference frames        : 2 frames
    Codec ID                                 : avc1
    Codec ID/Info                            : Advanced Video Coding
    Duration                                 : 50 min 35 s
    Bit rate                                 : 1 907 kb/s
    Šířka                                    : 1 280pixely
    Výška                                    : 720pixely
    Poměr stran                              : 16:9
    Frame rate mode                          : Variable
    Frame rate                               : 25,000 FPS
    Minimum frame rate                       : 12,500 FPS
    Maximum frame rate                       : 25,641 FPS
    Color space                              : YUV
    Chroma subsampling                       : 4:2:0
    Bit depth                                : 8 bits
    Scan type                                : Progressive
    Bits/(Pixel*Frame)                       : 0.083
    Stream size                              : 690 MiB (92%)
    Codec configuration box                  : avcC

    Audio
    ID                                       : 2
    Formát                                   : AAC LC
    Formát/Info                              : Advanced Audio Codec Low Complexity
    Codec ID                                 : mp4a-40-2
    Duration                                 : 50 min 35 s
    Bit rate mode                            : Constant
    Bit rate                                 : 160 kb/s
    Kanál(y)                                 : 2 kanály
    Channel layout                           : L R
    Sampling rate                            : 48,0 kHz
    Frame rate                               : 46,875 FPS (1024 SPF)
    Compression mode                         : Lossy
    Stream size                              : 57,9 MiB (8%)
    Default                                  : Ano
    Alternate group                          : 1







    petr500, slnieckozv, pelines,

    + Pridaj vlastnu verziu tohto torrentu +


    Upozornenie:
    Ziadny zo zobrazených súborov sa nenachádza na tomto serveri. Server slúzi len k síreniu vlastnorucne vytvorených aplikácií, videí, hudby ai. Autori stránok nenesú ziadnu zodpovednost za zverejnené odkazy, komentáre a obsah súborov. Vsetky komentáre, odkazy, súbory ktoré by svojou povahou mohli byt v rozpore zo zákonmi sem vkladáte na vlastnú zodpovednost. Autori stránok si vyhradzujú právo cenzúry odkazov, komentárov príp. súborov, ktoré by svojou povahou mohli byt v rozpore zo zákonmi a dobrými mravmi. Dodrzujte pravidlá!


    No comments...


    Back

    Na serveru se nenalézají zádne soubory. Za odkazy jsou výhradně zodpovědní uzivatelé a návstěvníci tohoto trackeru. Administrátor není zodpovědný za pridaný obsah ani za skody zpusobené uzivateli. Nesmíte pouzívat tuto webovou stránku pro distribuovaní nebo download zádného materiálu pokud nemáte povolení od príslusného vlastníka práv. Uzivatelé jsou zodpovědní za dodrzování těchto pravidel a podmínek. Owner má právo kdykoliv změnit pravidla tohoto trackeru.

    [ Script trval: 0.016 sec. ] - [ GZIP: enabled ]
    Je zhruba 13:30
    sql

    TOPlist