Tvoj čet nieje VIP.
Preto s tvoje funkcie a možnosti značne obmedzen.
Pre aktivciu VIP klikni sem.

Pratele / Friends (Komplet 10-serii)(CZ/EN/HUN/POL/SK/SPA)(1080p)(WebRip)(HEVC)(1994-2004) = CSFD 89% | SkTorrent.eu

Cz-SkTorrent open Tracker, na voln zdielanie sborov. Pridajte sa k nasej komunite a zskajte pristup k tiscom torrentov.

  • vysok rchlost
  • plne zdarma
  • prevazne Slovenska a Ceska scena
  • ste tu s nami uz 5 rokov - Dakujeme
  • Vitaj Guest (Login) Ako stahovat
    torrenty?
    Torrenty:
    v1 textov
    v2 obrzkov
    v3 online filmy
    Ako sa stat
    Uploaderom
    Online
    Filmy
    Forum
    Pravidl
    BitTorrent
    klient
    Meno: Heslo:
    Zaregistrovat
    Po zaregistrovan mozte volne stahovat
    Zabudol som heslo

    Torrent's details
    Pratele / Friends (Komplet 10-serii)(CZ/EN/HUN/POL/SK/SPA)(1080p)(WebRip)(HEVC)(1994-2004) = CSFD 89% Nzov:Pratele / Friends (Komplet 10-serii)(CZ/EN/HUN/POL/SK/SPA)(1080p)(WebRip)(HEVC)(1994-2004) = CSFD 89% Hodnocen: Stiahnut
    Pozriet Online
    Kategria:Seril Velikost:215.5 GB BitTorrent klient
    Pridan: Sbory:
    Skontrolovn:2022-05-13 Peerov:16 (Seed: 13, Leech: 3)
    Zaner:Komedie,Romanticky Uploader:Uvidis, az ked budes
    VIP
    Kp nm Pivo 1,10€

    Kp nm Pivo
    Podporte nas na Facebooku !
    Pridaj do zalozky
    Pridaj do zalozky











    Komedie / Romantick
    USA, (1994–2004), 86 h 32 min (Minut: 22 min)

    1-10.Srie - 234 dl (Kompletn WebRip)


    Video: 1080p MKV HEVC
    Audio : CZ/EN/HUN/POL/SK/SPA Dabing - AC-3 - 256 kb/s (Stereo)
    Titulky : CZ

    Tvrci: David Crane, Marta Kauffman
    Reie: Kevin Bright, Gary Halvorson, Michael Lembeck, James Burrows,
    Scn: David Crane, Marta Kauffman, Ted Cohen,
    Kamera: Nick McLean, Ken Lamkin, Richard Hissong, Mikel Neiers
    Hudba: Michael Skloff
    Hraj: Jennifer Aniston, Courteney Cox, Lisa Kudrow, Matt LeBlanc, Matthew Perry, David Schwimmer, James Michael Tyler, Elliott Gould, Christina Pickles,
    Produkce: Todd Stevens, Betsy Borns, Michael Curtis, Greg Malins, Sebastian Jones, Brian Buckner, Adam Chase, Alexa Junge, Ira Ungerleider, Andrew Reich, Shana Goldberg-Meehan, Scott Silveri, Ted Cohen, Wendy Knoller, Sherry Bilsing, Ellen Kreamer, Dana Klein, Robert Carlock
    Stih: Jay Scherberth, Stephen Prime, David Helfand, Andy Zall, Kenny Tintorri
    Zvuk: Charlie McDaniel, John Bickelhaupt, Todd Grace, Craig Porter, Kathy Oldham, Fred Tator, Cary Butler, Marc A. Gilmartin
    Scnografie: John Shaffner, Greg J. Grande
    Masky: Tony Gardner, Kevin Haney, Kathleen Karridene, Kim Addrisi
    Kostmy: Debra McGuire

    Nhled








    Ponote se do srdc a mysl estice ptel ijcch v New Yorku, zkoumajcch zkosti a absurdity skuten dosplosti. Tento sofistikovan kultovn seril nabz vesel pohled na randn a prci ve velkomst. Jak si Rachel, Monica, Phoebe, Joey, Chandler a Ross dobe uvdomuj, hledn tst asto zdnliv pin mnohem vce otzek ne odpovd. Zatmco se sna doshnout vlastnho naplnn, staraj se jeden o druhho v tto vzruujc dob, kdy je mon pln vechno – dokud mte ptele. (HBO Europe)



    Hlavn
    Unique ID                                : 233051566557817538961505785255141322300 (0xAF54195C20AA3613E5EBE69AD4F82E3C)
    Cel nzev a cesta                       : K:\Serily\Ptel Komplet 1080p (CZ-Multi5)(CZ-tit)\S01\[S1.E1] PTEL - Dl 1.mkv
    Formt                                   : Matroska
    Format version                           : Version 4
    Velikost souboru                         : 942 MiB
    Duration                                 : 21 min 49 s
    Celkov BitRate                          : 6 037 kb/s
    Pouit software                         : Lavf58.12.100
    Enkdoval                                : Lavf58.12.100
    Koment                                 : Rachel utk z vlastn svatby a potkv se s pteli v kavrn. Ross je v depresi z rozvodu, ale Rachel se mu pod lb.
    ErrorDetectionType                       : Per level 1
    DATE                                     : 1994

    Video
    ID                                       : 1
    Formt                                   : HEVC
    Formt/Info                              : High Efficiency Video Coding
    Format profile                           : Main@L4@Main
    Codec ID                                 : V_MPEGH/ISO/HEVC
    Duration                                 : 21 min 49 s
    Bit rate                                 : 4 380 kb/s
    ka                                    : 1 920pixely
    Vka                                    : 1 080pixely
    Pomr stran                              : 16:9
    Frame rate mode                          : Constant
    Frame rate                               : 25,000 FPS
    Color space                              : YUV
    Chroma subsampling                       : 4:2:0
    Bit depth                                : 8 bits
    Bits/(Pixel*Frame)                       : 0.084
    Stream size                              : 684 MiB (73%)
    Default                                  : Ano
    Forced                                   : Ne

    Audio #1
    ID                                       : 2
    Formt                                   : AC-3
    Formt/Info                              : Audio Coding 3
    Commercial name                          : Dolby Digital
    Codec ID                                 : A_AC3
    Duration                                 : 21 min 49 s
    Bit rate mode                            : Constant
    Bit rate                                 : 256 kb/s
    Kanl(y)                                 : 2 kanly
    Channel layout                           : L R
    Sampling rate                            : 48,0 kHz
    Frame rate                               : 31,250 FPS (1536 SPF)
    Bit depth                                : 16 bits
    Compression mode                         : Lossy
    Video delay                              : -5 ms
    Stream size                              : 40,0 MiB (4%)
    Jazyk                                    : Czech
    Service kind                             : Complete Main
    Default                                  : Ano
    Forced                                   : Ne

    Audio #2
    ID                                       : 3
    Formt                                   : AC-3
    Formt/Info                              : Audio Coding 3
    Commercial name                          : Dolby Digital
    Codec ID                                 : A_AC3
    Duration                                 : 21 min 49 s
    Bit rate mode                            : Constant
    Bit rate                                 : 256 kb/s
    Kanl(y)                                 : 2 kanly
    Channel layout                           : L R
    Sampling rate                            : 48,0 kHz
    Frame rate                               : 31,250 FPS (1536 SPF)
    Bit depth                                : 16 bits
    Compression mode                         : Lossy
    Video delay                              : -5 ms
    Stream size                              : 40,0 MiB (4%)
    Jazyk                                    : English
    Service kind                             : Complete Main
    Default                                  : Ano
    Forced                                   : Ne

    Audio #3
    ID                                       : 4
    Formt                                   : AC-3
    Formt/Info                              : Audio Coding 3
    Commercial name                          : Dolby Digital
    Codec ID                                 : A_AC3
    Duration                                 : 21 min 49 s
    Bit rate mode                            : Constant
    Bit rate                                 : 256 kb/s
    Kanl(y)                                 : 2 kanly
    Channel layout                           : L R
    Sampling rate                            : 48,0 kHz
    Frame rate                               : 31,250 FPS (1536 SPF)
    Bit depth                                : 16 bits
    Compression mode                         : Lossy
    Video delay                              : -5 ms
    Stream size                              : 40,0 MiB (4%)
    Jazyk                                    : Hungarian
    Service kind                             : Complete Main
    Default                                  : Ano
    Forced                                   : Ne

    Audio #4
    ID                                       : 5
    Formt                                   : AC-3
    Formt/Info                              : Audio Coding 3
    Commercial name                          : Dolby Digital
    Codec ID                                 : A_AC3
    Duration                                 : 21 min 49 s
    Bit rate mode                            : Constant
    Bit rate                                 : 256 kb/s
    Kanl(y)                                 : 2 kanly
    Channel layout                           : L R
    Sampling rate                            : 48,0 kHz
    Frame rate                               : 31,250 FPS (1536 SPF)
    Bit depth                                : 16 bits
    Compression mode                         : Lossy
    Video delay                              : -5 ms
    Stream size                              : 40,0 MiB (4%)
    Jazyk                                    : Polish
    Service kind                             : Complete Main
    Default                                  : Ano
    Forced                                   : Ne

    Audio #5
    ID                                       : 6
    Formt                                   : AC-3
    Formt/Info                              : Audio Coding 3
    Commercial name                          : Dolby Digital
    Codec ID                                 : A_AC3
    Duration                                 : 21 min 49 s
    Bit rate mode                            : Constant
    Bit rate                                 : 256 kb/s
    Kanl(y)                                 : 2 kanly
    Channel layout                           : L R
    Sampling rate                            : 48,0 kHz
    Frame rate                               : 31,250 FPS (1536 SPF)
    Bit depth                                : 16 bits
    Compression mode                         : Lossy
    Video delay                              : -5 ms
    Stream size                              : 40,0 MiB (4%)
    Jazyk                                    : Slovak
    Service kind                             : Complete Main
    Default                                  : Ano
    Forced                                   : Ne

    Audio #6
    ID                                       : 7
    Formt                                   : AC-3
    Formt/Info                              : Audio Coding 3
    Commercial name                          : Dolby Digital
    Codec ID                                 : A_AC3
    Duration                                 : 21 min 49 s
    Bit rate mode                            : Constant
    Bit rate                                 : 256 kb/s
    Kanl(y)                                 : 2 kanly
    Channel layout                           : L R
    Sampling rate                            : 48,0 kHz
    Frame rate                               : 31,250 FPS (1536 SPF)
    Bit depth                                : 16 bits
    Compression mode                         : Lossy
    Video delay                              : -5 ms
    Stream size                              : 40,0 MiB (4%)
    Jazyk                                    : Spanish
    Service kind                             : Complete Main
    Default                                  : Ano
    Forced                                   : Ne













    speedy_11, kapitanflaus, Sethlans, Jouzeph,

    + Pridaj vlastnu verziu tohto torrentu +


    Upozornenie:
    Ziadny zo zobrazench sborov sa nenachdza na tomto serveri. Server slzi len k sreniu vlastnorucne vytvorench aplikci, vide, hudby ai. Autori strnok nenes ziadnu zodpovednost za zverejnen odkazy, komentre a obsah sborov. Vsetky komentre, odkazy, sbory ktor by svojou povahou mohli byt v rozpore zo zkonmi sem vkladte na vlastn zodpovednost. Autori strnok si vyhradzuj prvo cenzry odkazov, komentrov prp. sborov, ktor by svojou povahou mohli byt v rozpore zo zkonmi a dobrmi mravmi. Dodrzujte pravidl!





    0
    flasinet
    Ratio 1.28

    Member+

    20/05/2022 20.14.18
    ma nebo nema toto anglicke titulky?

    0
    ivanpeter9
    Ratio 0.07

    Clen

    14/05/2022 21.41.00
    neurobil by si prosm aj THE WALKING DEAD.

    1
    kapitanflaus
    Ratio 1.81

    VIP

    14/05/2022 17.05.41
    Tko ktor nerobilo iadne bko


    Back

    Na serveru se nenalzaj zdne soubory. Za odkazy jsou vhradn zodpovdn uzivatel a nvstvnci tohoto trackeru. Administrtor nen zodpovdn za pridan obsah ani za skody zpusoben uzivateli. Rozsirovat strnku nebo jej obsah bez souhlasu ownera je zakzano. Nesmte pouzvat tuto webovou strnku pro distribuovan nebo download zdnho materilu pokud nemte povolen od prslusnho vlastnka prv. Uzivatel jsou zodpovdn za dodrzovn tchto pravidel a podmnek. Owner m prvo kdykoliv zmnit pravidla tohoto trackeru.

    [ Script trval: 0.046 sec. ] - [ GZIP: enabled ]
    Je zhruba 11:36
    sql

    TOPlist