Tvoj účet nieje VIP.
Preto sú tvoje funkcie a možnosti značne obmedzené.
Pre aktiváciu VIP klikni sem.

Predator: Korist / Prey (2022)(SK/EN)(WEBrip)(2160p-HEVC) = CSFD 84% | SkTorrent.eu

Cz-SkTorrent open Tracker, na volné zdielanie súborov. Pridajte sa k nasej komunite a získajte pristup k tisícom torrentov.

  • vysoká rýchlost
  • úplne zdarma
  • prevazne Slovenska a Ceska scena
  • ste tu s nami uz 5 rokov - Dakujeme
  • Vitaj Guest (Login) Ako stahovat
    torrenty?
    Torrenty:
    v1 textová
    v2 obrázková
    v3 online filmy
    Ako sa stat
    Uploaderom
    Online
    Filmy
    Forum
    Pravidlá
    BitTorrent
    klient
    Meno: Heslo:
    Zaregistrovat
    Po zaregistrovaní mozte volne stahovat
    Zabudol som heslo

    Torrent's details
    Predator: Korist / Prey (2022)(SK/EN)(WEBrip)(2160p-HEVC) = CSFD 84% Názov:Predator: Korist / Prey (2022)(SK/EN)(WEBrip)(2160p-HEVC) = CSFD 84% Hodnocení: Stiahnut
    Pozriet Online
    Kategória:UHD Filmy Velikost:13.8 GB BitTorrent klient
    Pridaný: Súbory:
    Skontrolován:2022-08-05 Peerov:69 (Seed: 66, Leech: 3)
    Zaner:Akcni,Horor,Sci-Fi,Thriller Uploader:Uvidis, az ked budes
    VIP
    Kúp nám Pivo 1,10€

    Kúp nám Pivo
    Podporte nas na Facebooku !
    Pridaj do zalozky
    Pridaj do zalozky











    Akční / Horor / Sci-Fi / Thriller
    USA, 2022, 99 min


    Video: 2160 MKV HEVC
    Audio : SK/EN Dabing - E-AC-3 5.1- 256 kb/s
    Titulky : SK/EN + SK forced

    Režie: Dan Trachtenberg
    Scénář: Patrick Aison
    Kamera: Jeff Cutter
    Hudba: Sarah Schachner
    Hrají: Amber Midthunder, Mike Paterson, Nelson Leis, Julian Black Antelope
    Produkce: John Davis, John Fox
    Střih: Claudia Castello
    Zvuk: Craig Henighan
    Scénografie: Kara Lindstrom
    Masky: Jo-Dee Thomson

    Náhled








    Predátor: Kořist se odehrává ve světě národa Komančů na počátku 17. století a je příběhem mladé ženy, vysoce schopné bojovnice, která se zoufale snaží ochránit svůj lid před hrozícím nebezpečím. Pronásleduje svou kořist, a nakonec se jí postaví. Ukáže se, že její kořist je vysoce vyvinutý mimozemský predátor s technicky vyspělým arzenálem, což vyústí v krutý a děsivý souboj mezi oběma protivníky. (Disney+)



    Formát                                   : Matroska
    Format version                           : Version 4
    Velikost souboru                         : 13,8 GiB
    Duration                                 : 1 h 39 min
    Celkový BitRate                          : 19,9 Mb/s
    Název filmu                              : Predátor: Kořist
    Description                              : „Predátor: Kořist“ je zcela nový akční thriller a nejnovější příspěvek do série „Predátor“, který se odehrává ve světě národa Komančů na počátku 17. století. Je to dosud nevyprávěný příběh mladé ženy Naru, divoké a velmi schopné bojovnice, která vyrostla mezi jedněmi z nejlepších lovců, kteří se potulovali po Velkých pláních. Je si jistá, že je stejně schopná jako ostatní mladí lovci, a vydává se chránit svůj lid, když jejímu táboru Komančů hrozí nebezpečí. Vyzbrojena těmi nejprimitivnějšími zbraněmi Naru pronásleduje, a nakonec se střetne se svou kořistí, z níž se vyklube vysoce vyvinutý mimozemský predátor s technicky vyspělým arzenálem, což vyústí v krutý a děsivý souboj obou protivníků. /  / Sekvence blikajících světel v pořadu mohou mít negativní vliv na fotosenzitivní diváky.
    Encoded date                             : UTC 2022-08-05 07:36:08
    Použitý software                         : HandBrake 1.5.1 2022011000
    Enkódoval                                : Lavf58.76.100
    ErrorDetectionType                       : Per level 1
    ARTIST                                   : Amber Midthunder,Michelle Thrush,Stefany Mathias,Mike Paterson,Dakota Beavers,Stormee Kipp

    Video
    ID                                       : 1
    Formát                                   : HEVC
    Formát/Info                              : High Efficiency Video Coding
    Format profile                           : Main@L5@Main
    Codec ID                                 : V_MPEGH/ISO/HEVC
    Duration                                 : 1 h 39 min
    Bit rate                                 : 18,9 Mb/s
    Šířka                                    : 3 840pixely
    Výška                                    : 2 160pixely
    Poměr stran                              : 2,40:1
    Frame rate mode                          : Constant
    Frame rate                               : 24,000 FPS
    Color space                              : YUV
    Chroma subsampling                       : 4:2:0
    Bit depth                                : 8 bits
    Bits/(Pixel*Frame)                       : 0.095
    Stream size                              : 13,2 GiB (95%)
    Default                                  : Ano
    Forced                                   : Ne
    Color range                              : Limited
    Color primaries                          : BT.709
    Transfer characteristics                 : BT.709
    Matrix coefficients                      : BT.709

    Audio #1
    ID                                       : 2
    Formát                                   : E-AC-3
    Formát/Info                              : Enhanced AC-3
    Commercial name                          : Dolby Digital Plus
    Codec ID                                 : A_EAC3
    Duration                                 : 1 h 39 min
    Bit rate mode                            : Constant
    Bit rate                                 : 256 kb/s
    Kanál(y)                                 : 6 kanály
    Channel layout                           : L R C LFE Ls Rs
    Sampling rate                            : 48,0 kHz
    Frame rate                               : 31,250 FPS (1536 SPF)
    Compression mode                         : Lossy
    Stream size                              : 182 MiB (1%)
    Titul                                    : Slovenčina
    Jazyk                                    : Slovak
    Service kind                             : Complete Main
    Default                                  : Ano
    Forced                                   : Ne

    Audio #2
    ID                                       : 3
    Formát                                   : E-AC-3
    Formát/Info                              : Enhanced AC-3
    Commercial name                          : Dolby Digital Plus
    Codec ID                                 : A_EAC3
    Duration                                 : 1 h 39 min
    Bit rate mode                            : Constant
    Bit rate                                 : 256 kb/s
    Kanál(y)                                 : 6 kanály
    Channel layout                           : L R C LFE Ls Rs
    Sampling rate                            : 48,0 kHz
    Frame rate                               : 31,250 FPS (1536 SPF)
    Compression mode                         : Lossy
    Stream size                              : 182 MiB (1%)
    Titul                                    : English
    Jazyk                                    : English
    Service kind                             : Complete Main
    Default                                  : Ne
    Forced                                   : Ne

    Text #1
    ID                                       : 4
    Formát                                   : ASS
    Codec ID                                 : S_TEXT/ASS
    Codec ID/Info                            : Advanced Sub Station Alpha
    Duration                                 : 1 h 39 min
    Compression mode                         : Lossless
    Titul                                    : Slovenčina
    Jazyk                                    : Slovak
    Default                                  : Ne
    Forced                                   : Ne

    Text #2
    ID                                       : 5
    Formát                                   : ASS
    Codec ID                                 : S_TEXT/ASS
    Codec ID/Info                            : Advanced Sub Station Alpha
    Duration                                 : 1 h 39 min
    Compression mode                         : Lossless
    Titul                                    : sk--forced--
    Jazyk                                    : Slovak
    Default                                  : Ne
    Forced                                   : Ne

    Text #3
    ID                                       : 6
    Formát                                   : ASS
    Codec ID                                 : S_TEXT/ASS
    Codec ID/Info                            : Advanced Sub Station Alpha
    Duration                                 : 1 h 39 min
    Compression mode                         : Lossless
    Titul                                    : Čeština
    Jazyk                                    : Czech
    Default                                  : Ne
    Forced                                   : Ne

    Text #4
    ID                                       : 7
    Formát                                   : ASS
    Codec ID                                 : S_TEXT/ASS
    Codec ID/Info                            : Advanced Sub Station Alpha
    Duration                                 : 1 h 30 min
    Compression mode                         : Lossless
    Titul                                    : English [CC]
    Jazyk                                    : English
    Default                                  : Ne
    Forced                                   : Ne








    ONLINE











    Xerold, PetrJaros, rudydraverr, Martty, irbis85, Ares43, Jooozef, orlov, DjJozo75, paulusek,

    + Pridaj vlastnu verziu tohto torrentu +


    Upozornenie:
    Ziadny zo zobrazených súborov sa nenachádza na tomto serveri. Server slúzi len k síreniu vlastnorucne vytvorených aplikácií, videí, hudby ai. Autori stránok nenesú ziadnu zodpovednost za zverejnené odkazy, komentáre a obsah súborov. Vsetky komentáre, odkazy, súbory ktoré by svojou povahou mohli byt v rozpore zo zákonmi sem vkladáte na vlastnú zodpovednost. Autori stránok si vyhradzujú právo cenzúry odkazov, komentárov príp. súborov, ktoré by svojou povahou mohli byt v rozpore zo zákonmi a dobrými mravmi. Dodrzujte pravidlá!





    0
    Nighti
    Ratio 2.84

    Member+

    06/08/2022 12.28.43
    Dotaz bude i v českém dabingu?


    Back

    Na serveru se nenalézají zádne soubory. Za odkazy jsou výhradně zodpovědní uzivatelé a návstěvníci tohoto trackeru. Administrátor není zodpovědný za pridaný obsah ani za skody zpusobené uzivateli. Rozsirovat stránku nebo její obsah bez souhlasu ownera je zakázano. Nesmíte pouzívat tuto webovou stránku pro distribuovaní nebo download zádného materiálu pokud nemáte povolení od príslusného vlastníka práv. Uzivatelé jsou zodpovědní za dodrzování těchto pravidel a podmínek. Owner má právo kdykoliv změnit pravidla tohoto trackeru.

    [ Script trval: 0.024 sec. ] - [ GZIP: enabled ]
    Je zhruba 15:01
    memcache

    TOPlist