Tvoj účet nieje VIP.
Preto sú tvoje funkcie a možnosti značne obmedzené.
Pre aktiváciu VIP klikni sem.

Pribeh sluzebnice / The Handmaid's Tale s04e09 en = CSFD 82% | SkTorrent.eu

Cz-SkTorrent open Tracker, na volné zdielanie súborov. Pridajte sa k nasej komunite a získajte pristup k tisícom torrentov.

  • vysoká rýchlost
  • úplne zdarma
  • prevazne Slovenska a Ceska scena
  • ste tu s nami uz 5 rokov - Dakujeme
  • Vitaj Guest (Login) Ako stahovat
    torrenty?
    Torrenty:
    v1 textová
    v2 obrázková
    v3 online filmy
    Ako sa stat
    Uploaderom
    Online
    Filmy
    Forum
    Pravidlá
    BitTorrent
    klient
    Meno: Heslo:
    Zaregistrovat
    Po zaregistrovaní mozte volne stahovat
    Zabudol som heslo

    Torrent's details
    Pribeh sluzebnice / The Handmaid's Tale s04e09 en = CSFD 82% Názov:Pribeh sluzebnice / The Handmaid's Tale s04e09 en = CSFD 82% Hodnocení:N/A Stiahnut
    Pozriet Online
    Kategória:Seriál Velikost:1.5 GB BitTorrent klient
    Pridaný: Súbory:
    Skontrolován:2021-06-10 Peerov:0 (Seed: 0, Leech: 0)
    Zaner:Drama,Sci-Fi,Thriller Uploader:Uvidis, az ked budes
    VIP
    Kúp nám Pivo 1,10€

    Kúp nám Pivo
    Podporte nas na Facebooku !
    Pridaj do zalozky
    Pridaj do zalozky




    jazyk:    anglický
    titulky:  anglické, španělské




    https://new.csfd.cz/film/481213-pribeh-sluzebnice/758530-serie-4/prehled/



    June Osborneová a Luke Bankole prchají se svou dcerou Hannah z Bostonu vstříc svobodě do Kanady. Při pronásledování je muž zastřelen, dcera odchycena a manželka deportována do nápravného zařízení. Zde, v Rudém centru vedeným železnou rukou tety Lýdie, je June poučena, že byla jako plodná žena vybrána do kasty služebnic – sexuálních nevolnic, které mají tu „čest“ vykonávat výsadu Boží: rodit děti Velitelům a jejich neplodným Manželkám. June prodělává nelítostnou změnu identity a pod jménem Offred nastupuje do služby velitele a paní Waterfordových. V panském domě Offred čeká podobný osud jako Bilhu z První knihy Mojžíšovy. Přesto nesměle navazuje první přátelský kontakt, navzdory riskování vlastního života. Offred je rozhodnuta za každou cenu přežít, uniknout a najít svou milovanou dceru. To ale ještě netuší, že ji sleduje špionské Oko…



    the-handmaids-tale-s04e09-1080p.-en.mkv
    Formát                                   : Matroska
    Format version                           : Version 4
    Velikost souboru                         : 1,45 GiB
    Duration                                 : 54 min 41 s
    Celkový BitRate                          : 3 800 kb/s
    Použitý software                         : mkvmerge v53.0.0 ('Fool's Gold') 64-bit
    Enkódoval                                : libebml v1.4.1 + libmatroska v1.6.2

    Video
    ID                                       : 1
    Formát                                   : AVC
    Formát/Info                              : Advanced Video Codec
    Format profile                           : High@L4
    Format settings                          : CABAC / 4 Ref Frames
    Format settings, CABAC                   : Ano
    Format settings, Reference frames        : 4 frames
    Codec ID                                 : V_MPEG4/ISO/AVC
    Duration                                 : 54 min 41 s
    Bit rate                                 : 3 542 kb/s
    Šířka                                    : 1 920pixely
    Výška                                    : 1 080pixely
    Poměr stran                              : 16:9
    Frame rate mode                          : Constant
    Frame rate                               : 23,976 (24000/1001) FPS
    Color space                              : YUV
    Chroma subsampling                       : 4:2:0
    Bit depth                                : 8 bits
    Scan type                                : Progressive
    Bits/(Pixel*Frame)                       : 0.071
    Stream size                              : 1,35 GiB (93%)
    Default                                  : Ano
    Forced                                   : Ne

    Audio
    ID                                       : 2
    Formát                                   : E-AC-3
    Formát/Info                              : Enhanced AC-3
    Commercial name                          : Dolby Digital Plus
    Codec ID                                 : A_EAC3
    Duration                                 : 54 min 41 s
    Bit rate mode                            : Constant
    Bit rate                                 : 256 kb/s
    Kanál(y)                                 : 6 kanály
    Channel layout                           : L R C LFE Ls Rs
    Sampling rate                            : 48,0 kHz
    Frame rate                               : 31,250 FPS (1536 SPF)
    Compression mode                         : Lossy
    Stream size                              : 100 MiB (7%)
    Jazyk                                    : English
    Service kind                             : Complete Main
    Default                                  : Ano
    Forced                                   : Ne

    Text #1
    ID                                       : 3
    Formát                                   : UTF-8
    Codec ID                                 : S_TEXT/UTF8
    Codec ID/Info                            : UTF-8 Plain Text
    Duration                                 : 53 min 6 s
    Bit rate                                 : 44 b/s
    Count of elements                        : 582
    Stream size                              : 17,2 KiB (0%)
    Jazyk                                    : English
    Default                                  : Ne
    Forced                                   : Ne

    Text #2
    ID                                       : 4
    Formát                                   : UTF-8
    Codec ID                                 : S_TEXT/UTF8
    Codec ID/Info                            : UTF-8 Plain Text
    Duration                                 : 53 min 6 s
    Bit rate                                 : 47 b/s
    Count of elements                        : 648
    Stream size                              : 18,5 KiB (0%)
    Titul                                    : SDH
    Jazyk                                    : English
    Default                                  : Ne
    Forced                                   : Ne

    Text #3
    ID                                       : 5
    Formát                                   : UTF-8
    Codec ID                                 : S_TEXT/UTF8
    Codec ID/Info                            : UTF-8 Plain Text
    Duration                                 : 53 min 6 s
    Bit rate                                 : 47 b/s
    Count of elements                        : 584
    Stream size                              : 18,4 KiB (0%)
    Jazyk                                    : Spanish
    Default                                  : Ne
    Forced                                   : Ne

    Text #4
    ID                                       : 6
    Formát                                   : UTF-8
    Codec ID                                 : S_TEXT/UTF8
    Codec ID/Info                            : UTF-8 Plain Text
    Duration                                 : 53 min 6 s
    Bit rate                                 : 51 b/s
    Count of elements                        : 650
    Stream size                              : 19,8 KiB (0%)
    Titul                                    : SDH
    Jazyk                                    : Spanish
    Default                                  : Ne
    Forced                                   : Ne














    + Pridaj vlastnu verziu tohto torrentu +


    Upozornenie:
    Ziadny zo zobrazených súborov sa nenachádza na tomto serveri. Server slúzi len k síreniu vlastnorucne vytvorených aplikácií, videí, hudby ai. Autori stránok nenesú ziadnu zodpovednost za zverejnené odkazy, komentáre a obsah súborov. Vsetky komentáre, odkazy, súbory ktoré by svojou povahou mohli byt v rozpore zo zákonmi sem vkladáte na vlastnú zodpovednost. Autori stránok si vyhradzujú právo cenzúry odkazov, komentárov príp. súborov, ktoré by svojou povahou mohli byt v rozpore zo zákonmi a dobrými mravmi. Dodrzujte pravidlá!


    No comments...


    Back

    Na serveru se nenalézají zádne soubory. Za odkazy jsou výhradně zodpovědní uzivatelé a návstěvníci tohoto trackeru. Administrátor není zodpovědný za pridaný obsah ani za skody zpusobené uzivateli. Rozsirovat stránku nebo její obsah bez souhlasu ownera je zakázano. Nesmíte pouzívat tuto webovou stránku pro distribuovaní nebo download zádného materiálu pokud nemáte povolení od príslusného vlastníka práv. Uzivatelé jsou zodpovědní za dodrzování těchto pravidel a podmínek. Owner má právo kdykoliv změnit pravidla tohoto trackeru.

    [ Script trval: 0.018 sec. ] - [ GZIP: enabled ]
    BtiTracker (1.4.8) by Btiteam
    Je zhruba 23:35

    TOPlist