Tvoj účet nieje VIP.
Preto sú tvoje funkcie a možnosti značne obmedzené.
Pre aktiváciu VIP klikni sem.

Private - Isabella Lui (CZ) And Freya Dee (SK) - Share Lucky Stud 720p | SkTorrent.eu

Cz-SkTorrent open Tracker, na volné zdielanie súborov. Pridajte sa k nasej komunite a získajte pristup k tisícom torrentov.

  • vysoká rýchlost
  • úplne zdarma
  • prevazne Slovenska a Ceska scena
  • ste tu s nami uz 5 rokov - Dakujeme
  • Vitaj Guest (Login) Ako stahovat
    torrenty?
    Torrenty:
    v1 textová
    v2 obrázková
    v3 online filmy
    Ako sa stat
    Uploaderom
    Online
    Filmy
    Forum
    Pravidlá
    BitTorrent
    klient
    pruzinky
    Meno: Heslo:
    Zaregistrovat
    Po zaregistrovaní mozte volne stahovat
    Zabudol som heslo

    Torrent's details
    Private - Isabella Lui (CZ) And Freya Dee (SK) - Share Lucky Stud 720p Názov:Private - Isabella Lui (CZ) And Freya Dee (SK) - Share Lucky Stud 720p Hodnocení: Stiahnut
    Pozriet Online
    Kategória:xXx Velikost:940.0 MB BitTorrent klient
    Pridaný: Súbory:
    Skontrolován:2020-07-31 Peerov:3 (Seed: 3, Leech: 0)
    Zaner: Uploader:Uvidis, az ked budes
    VIP
    Kúp nám Pivo 1,10€

    Kúp nám Pivo
    Podporte nas na Facebooku !
    Pridaj do zalozky
    Pridaj do zalozky






    Popis
    Private - Isabella Lui (CZ) And Freya Dee (SK) - Share Lucky Stud ⭐ 720p HD ⭐ XXX H264-SexG



    Dĺžka : 0 hod  36 min  38 sek
    Formát : MKV, Matroska Video File
    Kategória : XXX 18+







    Unique ID                                : 300328621032264137277256051036945259932 (0xE1F1303D9EE25C1C35F4E5D048521D9C)
    Celý názov a cesta                       : ... Private - Isabella Lui And Freya Dee [720p HD].mkv
    Formát                                   : Matroska
    Format version                           : Version 4
    Veľkosť súboru                           : 940 MiB
    Trvanie                                  : 36 min 38 sek.
    Celkový dátový tok                       : 3 587 kb/s
    Dátum zakódovania                        : UTC 2020-07-31 16:08:44
    Použitý software                         : mkvmerge v48.0.0 ( 'Fortress Around Your Heart' ) 64-bit
    Zakódoval                                : libebml v1.4.0 + libmatroska v1.6.0 / Lavf58.43.100
    Obal                                     : Yes
    Attachments                              : Cover.jpg
    RLS                                      : SexG ⭐ Downloaded from ⭐ www.hd-cztorrent.cz

    Video
    ID                                       : 1
    Formát                                   : AVC
    Formát/Info                              : Advanced Video Codec
    Profil formátu                           : High@L3.1
    Nastavenia formátu                       : CABAC / 1 Ref Frames
    Format settings, CABAC                   : Áno
    Format settings, Reference frames        : 1snímka
    Format settings, GOP                     : M=1, N=25
    Označenie kodeku                         : V_MPEG4/ISO/AVC
    Trvanie                                  : 36 min 38 sek.
    Režim dátového toku                      : Konštantný dátový tok
    Dátový tok                               : 3 456 kb/s
    Šírka                                    : 1 280 pixelov
    Výška                                    : 720 pixelov
    Pomer strán                              : 16:9
    Režim frekvencie snímok                  : Konštantný
    Frekvencia snímok                        : 25,000 snímok/sek.
    Color space                              : YUV
    Chroma subsampling                       : 4:2:0
    Bit depth                                : 8 bitov
    Scan type                                : Progresívne
    Bitov/(Bod*Snímka)                       : 0.150
    Stream size                              : 906 MiB (96%)
    Titul                                    : H264 1280x720 16:9
    Default                                  : Áno
    Forced                                   : Nie
    Color range                              : Limited
    Color primaries                          : BT.709
    Transfer characteristics                 : BT.709
    Matrix coefficients                      : BT.709

    Audio
    ID                                       : 2
    Formát                                   : AAC LC
    Formát/Info                              : Advanced Audio Codec Low Complexity
    Označenie kodeku                         : A_AAC-2
    Trvanie                                  : 36 min 38 sek.
    Dátový tok                               : 125 kb/s
    Kanál(y)                                 : 2 kanály
    Channel layout                           : L R
    Sampling rate                            : 48,0 kHz
    Frekvencia snímok                        : 46,875 snímok/sek. (1024 SPF)
    Compression mode                         : Lossy
    Stream size                              : 32,9 MiB (3%)
    Titul                                    : AAC 48000Hz 2Ch.
    Jazyk                                    : Anglicky
    Default                                  : Áno
    Forced                                   : Nie

       








    feti11,

    + Pridaj vlastnu verziu tohto torrentu +


    Upozornenie:
    Ziadny zo zobrazených súborov sa nenachádza na tomto serveri. Server slúzi len k síreniu vlastnorucne vytvorených aplikácií, videí, hudby ai. Autori stránok nenesú ziadnu zodpovednost za zverejnené odkazy, komentáre a obsah súborov. Vsetky komentáre, odkazy, súbory ktoré by svojou povahou mohli byt v rozpore zo zákonmi sem vkladáte na vlastnú zodpovednost. Autori stránok si vyhradzujú právo cenzúry odkazov, komentárov príp. súborov, ktoré by svojou povahou mohli byt v rozpore zo zákonmi a dobrými mravmi. Dodrzujte pravidlá!


    No comments...


    Back

    Na serveru se nenalézají zádne soubory. Za odkazy jsou výhradně zodpovědní uzivatelé a návstěvníci tohoto trackeru. Administrátor není zodpovědný za pridaný obsah ani za skody zpusobené uzivateli. Rozsirovat stránku nebo její obsah bez souhlasu ownera je zakázano. Nesmíte pouzívat tuto webovou stránku pro distribuovaní nebo download zádného materiálu pokud nemáte povolení od príslusného vlastníka práv. Uzivatelé jsou zodpovědní za dodrzování těchto pravidel a podmínek. Owner má právo kdykoliv změnit pravidla tohoto trackeru.

    [ Script trval: 0.024 sec. ] - [ GZIP: enabled ]
    BtiTracker (1.4.8) by Btiteam
    Je zhruba 06:51

    TOPlist