Tvoj účet nieje VIP.
Preto sú tvoje funkcie a možnosti značne obmedzené.
Pre aktiváciu VIP klikni sem.

Privatesociety | SkTorrent.eu

Cz-SkTorrent open Tracker, na volné zdielanie súborov. Pridajte sa k nasej komunite a získajte pristup k tisícom torrentov.

  • vysoká rýchlost
  • úplne zdarma
  • prevazne Slovenska a Ceska scena
  • ste tu s nami uz 5 rokov - Dakujeme
  • Vitaj Guest (Login) Ako stahovat
    torrenty?
    Torrenty:
    v1 textová
    v2 obrázková
    v3 online filmy
    Ako sa stat
    Uploaderom
    Online
    Filmy
    Forum
    Pravidlá
    BitTorrent
    klient
    pruzinky
    Meno: Heslo:
    Zaregistrovat
    Po zaregistrovaní mozte volne stahovat
    Zabudol som heslo

    Torrent's details
    Privatesociety Názov:Privatesociety Hodnocení:N/A Stiahnut
    Pozriet Online
    Kategória:xXx Velikost:94.6 GB BitTorrent klient
    Pridaný: Súbory:
    Skontrolován:2016-02-03 Peerov:0 (Seed: 0, Leech: 0)
    Zaner: Uploader:Uvidis, az ked budes
    VIP
    Kúp nám Pivo 1,10€

    Kúp nám Pivo
    Podporte nas na Facebooku !
    Pridaj do zalozky
    Pridaj do zalozky



    Videa zo znameho weboveho serveru  http://www.privatesociety.com/main/



    Nahlady:

    Kvalita videi:
    Quote:
    Privatesociety\Videos\AbbeyHD.mp4
    Format                                   : MPEG-4
    Format profile                           : Base Media / Version 2
    Codec ID                                 : mp42 (mp42/mp41)
    File size                                : 502 MiB
    Duration                                 : 13mn 23s
    Overall bit rate                         : 5 245 Kbps
    Encoded date                             : UTC 2014-07-26 00:05:30
    Tagged date                              : UTC 2014-07-26 00:05:53

    Video
    ID                                       : 1
    Format                                   : MPEG-4 Visual
    Format profile                           : Simple@L1
    Format settings, BVOP                    : Yes
    Format settings, QPel                    : No
    Format settings, GMC                     : No warppoints
    Format settings, Matrix                  : Default (H.263)
    Codec ID                                 : 20
    Duration                                 : 13mn 23s
    Bit rate                                 : 5 054 Kbps
    Width                                    : 1 280 pixels
    Height                                   : 720 pixels
    Display aspect ratio                     : 16:9
    Frame rate mode                          : Constant
    Frame rate                               : 29.970 (29970/1000) fps
    Color space                              : YUV
    Bit depth                                : 8 bits
    Scan type                                : Progressive
    Compression mode                         : Lossy
    Bits/(Pixel*Frame)                       : 0.183
    Stream size                              : 484 MiB (96%)
    Language                                 : English
    Encoded date                             : UTC 2014-07-26 00:05:01
    Tagged date                              : UTC 2014-07-26 00:05:53
    Color primaries                          : BT.709
    Transfer characteristics                 : BT.709
    Matrix coefficients                      : BT.709
    transfer_characteristics_Original        : BT.601
    matrix_coefficients_Original             : BT.601

    Audio
    ID                                       : 2
    Format                                   : AAC
    Format/Info                              : Advanced Audio Codec
    Format profile                           : LC
    Codec ID                                 : 40
    Duration                                 : 13mn 23s
    Source duration                          : 13mn 23s
    Bit rate mode                            : Constant
    Bit rate                                 : 64.0 Kbps
    Channel(s)                               : 2 channels
    Channel positions                        : Front: L R
    Sampling rate                            : 44.1 KHz
    Frame rate                               : 43.066 fps (1024 spf)
    Compression mode                         : Lossy
    Stream size                              : 5.95 MiB (1%)
    Source stream size                       : 5.95 MiB (1%)
    Language                                 : English
    Encoded date                             : UTC 2014-07-26 00:05:01
    Tagged date                              : UTC 2014-07-26 00:05:53

    Other #1
    ID                                       : 3
    Type                                     : Scene description
    Format                                   : System Core
    Codec ID                                 : 2
    Duration                                 : 13mn 23s
    Language                                 : English
    Encoded date                             : UTC 2014-07-26 00:05:01
    Tagged date                              : UTC 2014-07-26 00:05:53

    Other #2
    ID                                       : 4
    Type                                     : Object description
    Format                                   : System
    Codec ID                                 : 1
    Duration                                 : 13mn 23s
    Language                                 : English
    Encoded date                             : UTC 2014-07-26 00:05:01
    Tagged date                              : UTC 2014-07-26 00:05:53

    Other #3
    ID                                       : 5
    Type                                     : Hint
    Format                                   : RTP
    Codec ID                                 : rtp
    Duration                                 : 13mn 23s
    Title                                    : Hinted Sound Track
    Language                                 : English
    Default                                  : No
    Encoded date                             : UTC 2014-07-26 00:05:01
    Tagged date                              : UTC 2014-07-26 00:05:53
    Source duration                          : 803109
    Source_Duration_LastFrame                : -23
    Source frame count                       : 8647
    Source stream size                       : 830096
    Stream size                              : 830096
    Bit rate mode                            : VBR

    Other #4
    ID                                       : 6
    Type                                     : Hint
    Format                                   : RTP
    Codec ID                                 : rtp
    Duration                                 : 13mn 23s
    Title                                    : Hinted Video Track
    Language                                 : English
    Default                                  : No
    Encoded date                             : UTC 2014-07-26 00:05:11
    Tagged date                              : UTC 2014-07-26 00:05:53

    Pocet videi : 175 a velkost 94,5 GB







    + Pridaj vlastnu verziu tohto torrentu +


    Upozornenie:
    Ziadny zo zobrazených súborov sa nenachádza na tomto serveri. Server slúzi len k síreniu vlastnorucne vytvorených aplikácií, videí, hudby ai. Autori stránok nenesú ziadnu zodpovednost za zverejnené odkazy, komentáre a obsah súborov. Vsetky komentáre, odkazy, súbory ktoré by svojou povahou mohli byt v rozpore zo zákonmi sem vkladáte na vlastnú zodpovednost. Autori stránok si vyhradzujú právo cenzúry odkazov, komentárov príp. súborov, ktoré by svojou povahou mohli byt v rozpore zo zákonmi a dobrými mravmi. Dodrzujte pravidlá!


    No comments...


    Back

    Na serveru se nenalézají zádne soubory. Za odkazy jsou výhradně zodpovědní uzivatelé a návstěvníci tohoto trackeru. Administrátor není zodpovědný za pridaný obsah ani za skody zpusobené uzivateli. Rozsirovat stránku nebo její obsah bez souhlasu ownera je zakázano. Nesmíte pouzívat tuto webovou stránku pro distribuovaní nebo download zádného materiálu pokud nemáte povolení od príslusného vlastníka práv. Uzivatelé jsou zodpovědní za dodrzování těchto pravidel a podmínek. Owner má právo kdykoliv změnit pravidla tohoto trackeru.

    [ Script trval: 0.034 sec. ] - [ GZIP: enabled ]
    BtiTracker (1.4.8) by Btiteam
    Je zhruba 02:47

    TOPlist