Tvoj účet nieje VIP.
Preto sú tvoje funkcie a možnosti značne obmedzené.
Pre aktiváciu VIP klikni sem.

Prokleti mestecka Bridge Hollow / The Curse of Bridge Hollow (2022)(FHD)(1080p)(Webdl)(x264)(CZ+Multi 6 lang)(MultiSub) = CSFD 51% | SkTorrent.eu

Cz-SkTorrent open Tracker, na volné zdieľanie súborov. Pridajte sa k našej komunite a získajte prístup k tisícom torrentov.

  • vysoká rýchlosť
  • úplne zdarma
  • prevažne Slovenská a Česká scéna
  • ste tu s nami už 10 rokov - Ďakujeme
  • Vitaj Guest (Login) Ako stahovat
    torrenty?
    Torrenty:
    v1 textová
    v2 obrázková
    Ako sa stat
    Uploaderom
    Online
    Filmy
    Forum
    Pravidlá
    SkTSocial
    BitTorrent
    klient
    Meno: Heslo:
    Zaregistrovat
    Po zaregistrovaní mozte volne stahovat
    Zabudol som heslo

    Prokleti mestecka Bridge Hollow / The Curse of Bridge Hollow (2022)(FHD)(1080p)(Webdl)(x264)(CZ+Multi 6 lang)(MultiSub) = CSFD 51% Názov:Prokleti mestecka Bridge Hollow / The Curse of Bridge Hollow (2022)(FHD)(1080p)(Webdl)(x264)(CZ+Multi 6 lang)(MultiSub) = CSFD 51% Hodnocení:N/A Stiahnut
    Pozriet Online
    Kategória:HD Filmy Velikost:3.2 GB BitTorrent klient
    Pridaný: Súbory:
    Skontrolován:2022-11-03 Peerov:3 (Seed: 3, Leech: 0)
    Zaner:Dobrodruzny,Horor,Komedie,Rodinny Uploader:Uvidis, az ked budes
    VIP
    Kúp nám Pivo 1,10€

    Kúp nám Pivo

    Pridaj do zalozky
    Pridaj do zalozky





    [center]






    Movie Name: The Curse of Bridge Hollow (2022)
    IMDb Rating: 5.6/10

    Quality: 1080p (WebDL)
    Language: E-AC3 5.1 - English , Czech , Germany , Polish , Hungarian, Ukrainian
    Subtitles: Multi 15+
    Director: Jeff Wadlow
    Writers: Todd Berger (screenplay by) Robert Rugan (screenplay by) John R. Morey (story by)
    Genres: Adventure | Comedy | Family |


    A teenage girl, who accidentally releases an ancient and mischievous spirit on Halloween which causes decorations to come alive and wreak havoc, must team up with the last person she'd want to in order to save their town - her father!






    [/center]
    Format                                   : Matroska
    Format version                           : Version 4
    File size                                : 3.17 GiB
    Duration                                 : 1 h 31 min
    Overall bit rate mode                    : Variable
    Overall bit rate                         : 4 930 kb/s
    Movie name                               : Prokletí městečka Bridge Hollow
    Encoded date                             : UTC 2022-10-21 19:33:10
    Writing application                      : mkvmerge v68.0.0 ('The Curtain') 64-bit
    Writing library                          : libebml v1.4.2 + libmatroska v1.6.4

    Video
    ID                                       : 1
    Format                                   : AVC
    Format/Info                              : Advanced Video Codec
    Format profile                           : High@L4
    Format settings                          : CABAC / 4 Ref Frames
    Format settings, CABAC                   : Yes
    Format settings, Reference frames        : 4 frames
    Codec ID                                 : V_MPEG4/ISO/AVC
    Duration                                 : 1 h 31 min
    Bit rate mode                            : Variable
    Bit rate                                 : 1 598 kb/s
    Maximum bit rate                         : 20.0 Mb/s
    Width                                    : 1 920 pixels
    Height                                   : 1 080 pixels
    Display aspect ratio                     : 16:9
    Frame rate mode                          : Constant
    Frame rate                               : 24.000 FPS
    Color space                              : YUV
    Chroma subsampling                       : 4:2:0
    Bit depth                                : 8 bits
    Scan type                                : Progressive
    Bits/(Pixel*Frame)                       : 0.032
    Stream size                              : 1.03 GiB (32%)
    Writing library                          : x264 core 148 r2727 7d026e8
    Encoding settings                        : cabac=1 / ref=4 / deblock=1:0:0 / analyse=0x3:0x111 / me=umh / subme=10 / psy=1 / psy_rd=1.00:0.00 / mixed_ref=1 / me_range=120 / chroma_me=1 / trellis=2 / 8x8dct=1 / cqm=0 / deadzone=21,11 / fast_pskip=1 / chroma_qp_offset=-2 / threads=8 / lookahead_threads=2 / sliced_threads=0 / nr=0 / decimate=1 / interlaced=0 / bluray_compat=0 / stitchable=1 / constrained_intra=0 / bframes=16 / b_pyramid=2 / b_adapt=2 / b_bias=0 / direct=3 / weightb=1 / open_gop=0 / weightp=2 / keyint=240 / keyint_min=121 / scenecut=0 / intra_refresh=0 / rc_lookahead=240 / rc=crf / mbtree=1 / crf=26.0 / qcomp=0.50 / qpmin=6 / qpmax=51 / qpstep=4 / vbv_maxrate=20000 / vbv_bufsize=25000 / crf_max=0.0 / nal_hrd=vbr / filler=0 / ip_ratio=1.40 / aq=1:0.80
    Default                                  : Yes
    Forced                                   : No

    Audio #1
    ID                                       : 2
    Format                                   : E-AC-3
    Format/Info                              : Enhanced AC-3
    Commercial name                          : Dolby Digital Plus
    Codec ID                                 : A_EAC3
    Duration                                 : 1 h 31 min
    Bit rate mode                            : Constant
    Bit rate                                 : 640 kb/s
    Channel(s)                               : 6 channels
    Channel layout                           : L R C LFE Ls Rs
    Sampling rate                            : 48.0 kHz
    Frame rate                               : 31.250 FPS (1536 SPF)
    Compression mode                         : Lossy
    Stream size                              : 421 MiB (13%)
    Language                                 : Czech
    Service kind                             : Complete Main
    Default                                  : No
    Forced                                   : No

    Audio #2
    ID                                       : 3
    Format                                   : E-AC-3
    Format/Info                              : Enhanced AC-3
    Commercial name                          : Dolby Digital Plus
    Codec ID                                 : A_EAC3
    Duration                                 : 1 h 31 min
    Bit rate mode                            : Constant
    Bit rate                                 : 640 kb/s
    Channel(s)                               : 6 channels
    Channel layout                           : L R C LFE Ls Rs
    Sampling rate                            : 48.0 kHz
    Frame rate                               : 31.250 FPS (1536 SPF)
    Compression mode                         : Lossy
    Stream size                              : 421 MiB (13%)
    Language                                 : German
    Service kind                             : Complete Main
    Default                                  : No
    Forced                                   : No

    Audio #3
    ID                                       : 4
    Format                                   : E-AC-3
    Format/Info                              : Enhanced AC-3
    Commercial name                          : Dolby Digital Plus
    Codec ID                                 : A_EAC3
    Duration                                 : 1 h 31 min
    Bit rate mode                            : Constant
    Bit rate                                 : 128 kb/s
    Channel(s)                               : 2 channels
    Channel layout                           : L R
    Sampling rate                            : 48.0 kHz
    Frame rate                               : 31.250 FPS (1536 SPF)
    Compression mode                         : Lossy
    Stream size                              : 84.2 MiB (3%)
    Language                                 : English
    Service kind                             : Complete Main
    Default                                  : No
    Forced                                   : No

    Audio #4
    ID                                       : 5
    Format                                   : E-AC-3
    Format/Info                              : Enhanced AC-3
    Commercial name                          : Dolby Digital Plus
    Codec ID                                 : A_EAC3
    Duration                                 : 1 h 31 min
    Bit rate mode                            : Constant
    Bit rate                                 : 640 kb/s
    Channel(s)                               : 6 channels
    Channel layout                           : L R C LFE Ls Rs
    Sampling rate                            : 48.0 kHz
    Frame rate                               : 31.250 FPS (1536 SPF)
    Compression mode                         : Lossy
    Stream size                              : 421 MiB (13%)
    Language                                 : Hungarian
    Service kind                             : Complete Main
    Default                                  : No
    Forced                                   : No

    Audio #5
    ID                                       : 6
    Format                                   : E-AC-3
    Format/Info                              : Enhanced AC-3
    Commercial name                          : Dolby Digital Plus
    Codec ID                                 : A_EAC3
    Duration                                 : 1 h 31 min
    Bit rate mode                            : Constant
    Bit rate                                 : 640 kb/s
    Channel(s)                               : 6 channels
    Channel layout                           : L R C LFE Ls Rs
    Sampling rate                            : 48.0 kHz
    Frame rate                               : 31.250 FPS (1536 SPF)
    Compression mode                         : Lossy
    Stream size                              : 421 MiB (13%)
    Language                                 : Polish
    Service kind                             : Complete Main
    Default                                  : No
    Forced                                   : No

    Audio #6
    ID                                       : 7
    Format                                   : E-AC-3
    Format/Info                              : Enhanced AC-3
    Commercial name                          : Dolby Digital Plus
    Codec ID                                 : A_EAC3
    Duration                                 : 1 h 31 min
    Bit rate mode                            : Constant
    Bit rate                                 : 640 kb/s
    Channel(s)                               : 6 channels
    Channel layout                           : L R C LFE Ls Rs
    Sampling rate                            : 48.0 kHz
    Frame rate                               : 31.250 FPS (1536 SPF)
    Compression mode                         : Lossy
    Stream size                              : 421 MiB (13%)
    Language                                 : Ukrainian
    Service kind                             : Complete Main
    Default                                  : No
    Forced                                   : No

    Text #1
    ID                                       : 8
    Format                                   : UTF-8
    Codec ID                                 : S_TEXT/UTF8
    Codec ID/Info                            : UTF-8 Plain Text
    Duration                                 : 1 h 27 min
    Bit rate                                 : 73 b/s
    Frame rate                               : 0.316 FPS
    Count of elements                        : 1658
    Stream size                              : 47.2 KiB (0%)
    Language                                 : Czech
    Default                                  : Yes
    Forced                                   : No

    Text #2
    ID                                       : 9
    Format                                   : UTF-8
    Codec ID                                 : S_TEXT/UTF8
    Codec ID/Info                            : UTF-8 Plain Text
    Duration                                 : 1 h 24 min
    Bit rate                                 : 58 b/s
    Frame rate                               : 0.236 FPS
    Count of elements                        : 1189
    Stream size                              : 35.9 KiB (0%)
    Language                                 : Czech
    Default                                  : Yes
    Forced                                   : No

    Text #3
    ID                                       : 10
    Format                                   : UTF-8
    Codec ID                                 : S_TEXT/UTF8
    Codec ID/Info                            : UTF-8 Plain Text
    Duration                                 : 1 h 29 min
    Bit rate                                 : 50 b/s
    Frame rate                               : 0.208 FPS
    Count of elements                        : 1117
    Stream size                              : 32.9 KiB (0%)
    Language                                 : Czech
    Default                                  : Yes
    Forced                                   : No

    Text #4
    ID                                       : 11
    Format                                   : UTF-8
    Codec ID                                 : S_TEXT/UTF8
    Codec ID/Info                            : UTF-8 Plain Text
    Duration                                 : 1 h 29 min
    Bit rate                                 : 0 b/s
    Frame rate                               : 0.005 FPS
    Count of elements                        : 25
    Stream size                              : 639 Bytes (0%)
    Language                                 : Czech
    Default                                  : Yes
    Forced                                   : No

    Text #5
    ID                                       : 12
    Format                                   : UTF-8
    Codec ID                                 : S_TEXT/UTF8
    Codec ID/Info                            : UTF-8 Plain Text
    Duration                                 : 1 h 29 min
    Bit rate                                 : 48 b/s
    Frame rate                               : 0.196 FPS
    Count of elements                        : 1058
    Stream size                              : 31.9 KiB (0%)
    Language                                 : German
    Default                                  : Yes
    Forced                                   : No

    Text #6
    ID                                       : 13
    Format                                   : UTF-8
    Codec ID                                 : S_TEXT/UTF8
    Codec ID/Info                            : UTF-8 Plain Text
    Duration                                 : 1 h 29 min
    Bit rate                                 : 0 b/s
    Frame rate                               : 0.004 FPS
    Count of elements                        : 23
    Stream size                              : 512 Bytes (0%)
    Language                                 : German
    Default                                  : Yes
    Forced                                   : No

    Text #7
    ID                                       : 14
    Format                                   : UTF-8
    Codec ID                                 : S_TEXT/UTF8
    Codec ID/Info                            : UTF-8 Plain Text
    Duration                                 : 1 h 27 min
    Bit rate                                 : 82 b/s
    Frame rate                               : 0.330 FPS
    Count of elements                        : 1731
    Stream size                              : 52.8 KiB (0%)
    Language                                 : English
    Default                                  : Yes
    Forced                                   : No

    Text #8
    ID                                       : 15
    Format                                   : UTF-8
    Codec ID                                 : S_TEXT/UTF8
    Codec ID/Info                            : UTF-8 Plain Text
    Duration                                 : 1 h 27 min
    Bit rate                                 : 78 b/s
    Frame rate                               : 0.298 FPS
    Count of elements                        : 1566
    Stream size                              : 50.1 KiB (0%)
    Language                                 : Hungarian
    Default                                  : Yes
    Forced                                   : No

    Text #9
    ID                                       : 16
    Format                                   : UTF-8
    Codec ID                                 : S_TEXT/UTF8
    Codec ID/Info                            : UTF-8 Plain Text
    Duration                                 : 1 h 29 min
    Bit rate                                 : 53 b/s
    Frame rate                               : 0.202 FPS
    Count of elements                        : 1081
    Stream size                              : 35.1 KiB (0%)
    Language                                 : Hungarian
    Default                                  : Yes
    Forced                                   : No

    Text #10
    ID                                       : 17
    Format                                   : UTF-8
    Codec ID                                 : S_TEXT/UTF8
    Codec ID/Info                            : UTF-8 Plain Text
    Duration                                 : 1 h 24 min
    Bit rate                                 : 59 b/s
    Frame rate                               : 0.220 FPS
    Count of elements                        : 1111
    Stream size                              : 36.4 KiB (0%)
    Language                                 : Hungarian
    Default                                  : Yes
    Forced                                   : No

    Text #11
    ID                                       : 18
    Format                                   : UTF-8
    Codec ID                                 : S_TEXT/UTF8
    Codec ID/Info                            : UTF-8 Plain Text
    Duration                                 : 1 h 29 min
    Bit rate                                 : 0 b/s
    Frame rate                               : 0.004 FPS
    Count of elements                        : 24
    Stream size                              : 601 Bytes (0%)
    Language                                 : Hungarian
    Default                                  : Yes
    Forced                                   : No

    Text #12
    ID                                       : 19
    Format                                   : UTF-8
    Codec ID                                 : S_TEXT/UTF8
    Codec ID/Info                            : UTF-8 Plain Text
    Duration                                 : 1 h 29 min
    Bit rate                                 : 50 b/s
    Frame rate                               : 0.201 FPS
    Count of elements                        : 1076
    Stream size                              : 33.1 KiB (0%)
    Language                                 : Polish
    Default                                  : Yes
    Forced                                   : No

    Text #13
    ID                                       : 20
    Format                                   : UTF-8
    Codec ID                                 : S_TEXT/UTF8
    Codec ID/Info                            : UTF-8 Plain Text
    Duration                                 : 1 h 29 min
    Bit rate                                 : 0 b/s
    Frame rate                               : 0.004 FPS
    Count of elements                        : 24
    Stream size                              : 583 Bytes (0%)
    Language                                 : Polish
    Default                                  : Yes
    Forced                                   : No

    Text #14
    ID                                       : 21
    Format                                   : UTF-8
    Codec ID                                 : S_TEXT/UTF8
    Codec ID/Info                            : UTF-8 Plain Text
    Duration                                 : 1 h 29 min
    Bit rate                                 : 1 b/s
    Frame rate                               : 0.005 FPS
    Count of elements                        : 25
    Stream size                              : 1.11 KiB (0%)
    Language                                 : Ukrainian
    Default                                  : Yes
    Forced                                   : No

    Text #15
    ID                                       : 22
    Format                                   : UTF-8
    Codec ID                                 : S_TEXT/UTF8
    Codec ID/Info                            : UTF-8 Plain Text
    Duration                                 : 1 h 29 min
    Bit rate                                 : 84 b/s
    Frame rate                               : 0.205 FPS
    Count of elements                        : 1097
    Stream size                              : 55.4 KiB (0%)
    Language                                 : Ukrainian
    Default                                  : Yes
    Forced                                   : No





    ONLINE




    Upozornenie:
    Ziadny zo zobrazených súborov sa nenachádza na tomto serveri. Server slúzi len k síreniu vlastnorucne vytvorených aplikácií, videí, hudby ai. Autori stránok nenesú ziadnu zodpovednost za zverejnené odkazy, komentáre a obsah súborov. Vsetky komentáre, odkazy, súbory ktoré by svojou povahou mohli byt v rozpore zo zákonmi sem vkladáte na vlastnú zodpovednost. Autori stránok si vyhradzujú právo cenzúry odkazov, komentárov príp. súborov, ktoré by svojou povahou mohli byt v rozpore zo zákonmi a dobrými mravmi. Dodrzujte pravidlá!


    No comments...


    Back

    Na serveru se nenalézají zádne soubory. Za odkazy jsou výhradně zodpovědní uzivatelé a návstěvníci tohoto trackeru. Administrátor není zodpovědný za pridaný obsah ani za skody zpusobené uzivateli. Nesmíte pouzívat tuto webovou stránku pro distribuovaní nebo download zádného materiálu pokud nemáte povolení od príslusného vlastníka práv. Uzivatelé jsou zodpovědní za dodrzování těchto pravidel a podmínek. Owner má právo kdykoliv změnit pravidla tohoto trackeru.

    [ Script trval: 0.107 sec. ] - [ GZIP: enabled ]
    Je zhruba 09:40
    memcache

    TOPlist