Tvoj účet nieje VIP.
Preto sú tvoje funkcie a možnosti značne obmedzené.
Pre aktiváciu VIP klikni sem.

Prokleti ostrova Oak / The Curse of Oak Island S09E22 CZ dabing = CSFD 63% | SkTorrent.eu

Cz-SkTorrent open Tracker, na volné zdielanie súborov. Pridajte sa k nasej komunite a získajte pristup k tisícom torrentov.

  • vysoká rýchlost
  • úplne zdarma
  • prevazne Slovenska a Ceska scena
  • ste tu s nami uz 5 rokov - Dakujeme
  • Vitaj Guest (Login) Ako stahovat
    torrenty?
    Torrenty:
    v1 textová
    v2 obrázková
    v3 online filmy
    Ako sa stat
    Uploaderom
    Online
    Filmy
    Forum
    Pravidlá
    BitTorrent
    klient
    Meno: Heslo:
    Zaregistrovat
    Po zaregistrovaní mozte volne stahovat
    Zabudol som heslo

    Torrent's details
    Prokleti ostrova Oak / The Curse of Oak Island S09E22 CZ dabing = CSFD 63% Názov:Prokleti ostrova Oak / The Curse of Oak Island S09E22 CZ dabing = CSFD 63% Hodnocení:N/A Stiahnut
    Pozriet Online
    Kategória:Dokument Velikost:1.3 GB BitTorrent klient
    Pridaný: Súbory:
    Skontrolován:2022-06-22 Peerov:4 (Seed: 4, Leech: 0)
    Zaner:Dokumentarny,Reality-TV Uploader:Uvidis, az ked budes
    VIP
    Kúp nám Pivo 1,10€

    Kúp nám Pivo
    Podporte nas na Facebooku !
    Pridaj do zalozky
    Pridaj do zalozky








    Kousek u pobřeží Nového Skotska leží malý ostrůvek zahalený tajemstvím. Na počátku 18. století si tam lidé v noci všimli zvláštních světel a člověk, který byl vyslán, aby to prozkoumal, zmizel. Pak ale na ostrov dopluly dvě děti, které zde našly podivnou propadlinu. Tento objev zahájil pátrání, jež trvá až do dnešních dnů a zúčastnili se ho i tací, jako Franklin D. Roosevelt nebo John Wayne. Co se skrývá pod povrchem ostrova Oak? Je to pirátský poklad nebo horda Vikingů? Starodávná pevnost Fort Knox nebo ztracený biblický poklad jako je Archa úmluvy? Nikdo neví a každý, kdo se to snažil zjistit, narazil na nečekané problémy – nástražné výbušniny. Někdo si dal velkou práci skrýt to, co tam je, protože jakmile začnete kopat, díru zaplaví mořská voda z uměle vytvořených podzemních kanálů.



    https://www.csfd.cz/film/387622-prokleti-ostrova-oak/prehled/




    Formát                                   : MPEG-4
    Format profile                           : Base Media
    Codec ID                                 : isom (isom/iso2/avc1/mp41)
    Velikost souboru                         : 1,28 GiB
    Duration                                 : 40 min 44 s
    Celkový BitRate                          : 4 500 kb/s
    Použitý software                         : VideoReDo (Lavf57.71.100)

    Video
    ID                                       : 1
    Formát                                   : AVC
    Formát/Info                              : Advanced Video Codec
    Format profile                           : High@L4
    Format settings                          : CABAC / 4 Ref Frames
    Format settings, CABAC                   : Ano
    Format settings, Reference frames        : 4 frames
    Codec ID                                 : avc1
    Codec ID/Info                            : Advanced Video Coding
    Duration                                 : 40 min 44 s
    Bit rate                                 : 3 991 kb/s
    Šířka                                    : 1 920pixely
    Výška                                    : 1 080pixely
    Poměr stran                              : 16:9
    Frame rate mode                          : Constant
    Frame rate                               : 50,000 FPS
    Original frame rate                      : 25,000 FPS
    Standard                                 : Component
    Color space                              : YUV
    Chroma subsampling                       : 4:2:0
    Bit depth                                : 8 bits
    Scan type                                : Interlaced
    Scan type, store method                  : Separated fields
    Scan order                               : Top Field First
    Bits/(Pixel*Frame)                       : 0.038
    Stream size                              : 1,14 GiB (89%)
    Color range                              : Limited
    Color primaries                          : BT.709
    Transfer characteristics                 : BT.709
    Matrix coefficients                      : BT.709
    Codec configuration box                  : avcC

    Audio #1
    ID                                       : 2
    Formát                                   : MPEG Audio
    Format version                           : Version 1
    Format profile                           : Layer 2
    Codec ID                                 : mp4a-6B
    Duration                                 : 40 min 44 s
    Duration_LastFrame                       : -24 ms
    Bit rate mode                            : Constant
    Bit rate                                 : 160 kb/s
    Kanál(y)                                 : 2 kanály
    Sampling rate                            : 48,0 kHz
    Compression mode                         : Lossy
    Stream size                              : 46,6 MiB (4%)
    Jazyk                                    : Czech
    Default                                  : Ano
    Alternate group                          : 1

    Audio #2
    ID                                       : 3
    Formát                                   : MPEG Audio
    Format version                           : Version 1
    Format profile                           : Layer 2
    Codec ID                                 : mp4a-6B
    Duration                                 : 40 min 44 s
    Duration_LastFrame                       : -24 ms
    Bit rate mode                            : Constant
    Bit rate                                 : 160 kb/s
    Kanál(y)                                 : 2 kanály
    Sampling rate                            : 48,0 kHz
    Compression mode                         : Lossy
    Stream size                              : 46,6 MiB (4%)
    Jazyk                                    : English
    Default                                  : Ne
    Alternate group                          : 1

    Audio #3
    ID                                       : 4
    Formát                                   : MPEG Audio
    Format version                           : Version 1
    Format profile                           : Layer 2
    Codec ID                                 : mp4a-6B
    Duration                                 : 40 min 44 s
    Duration_LastFrame                       : -24 ms
    Bit rate mode                            : Constant
    Bit rate                                 : 160 kb/s
    Kanál(y)                                 : 2 kanály
    Sampling rate                            : 48,0 kHz
    Compression mode                         : Lossy
    Stream size                              : 46,6 MiB (4%)
    Jazyk                                    : Hungarian
    Default                                  : Ne
    Alternate group                          : 1









    1234DURKO, TeneT, vaclav78, vojta229, sgabi8888, vandam,

    + Pridaj vlastnu verziu tohto torrentu +


    Upozornenie:
    Ziadny zo zobrazených súborov sa nenachádza na tomto serveri. Server slúzi len k síreniu vlastnorucne vytvorených aplikácií, videí, hudby ai. Autori stránok nenesú ziadnu zodpovednost za zverejnené odkazy, komentáre a obsah súborov. Vsetky komentáre, odkazy, súbory ktoré by svojou povahou mohli byt v rozpore zo zákonmi sem vkladáte na vlastnú zodpovednost. Autori stránok si vyhradzujú právo cenzúry odkazov, komentárov príp. súborov, ktoré by svojou povahou mohli byt v rozpore zo zákonmi a dobrými mravmi. Dodrzujte pravidlá!


    No comments...


    Back

    Na serveru se nenalézají zádne soubory. Za odkazy jsou výhradně zodpovědní uzivatelé a návstěvníci tohoto trackeru. Administrátor není zodpovědný za pridaný obsah ani za skody zpusobené uzivateli. Rozsirovat stránku nebo její obsah bez souhlasu ownera je zakázano. Nesmíte pouzívat tuto webovou stránku pro distribuovaní nebo download zádného materiálu pokud nemáte povolení od príslusného vlastníka práv. Uzivatelé jsou zodpovědní za dodrzování těchto pravidel a podmínek. Owner má právo kdykoliv změnit pravidla tohoto trackeru.

    [ Script trval: 0.019 sec. ] - [ GZIP: enabled ]
    Je zhruba 20:37
    sql

    TOPlist