Tvoj účet nieje VIP.
Preto sú tvoje funkcie a možnosti značne obmedzené.
Pre aktiváciu VIP klikni sem.

Proklety ostrov / Shutter Island (2010)(CZ) = CSFD 88% | SkTorrent.eu

Cz-SkTorrent open Tracker, na volné zdielanie súborov. Pridajte sa k nasej komunite a získajte pristup k tisícom torrentov.

  • vysoká rýchlost
  • úplne zdarma
  • prevazne Slovenska a Ceska scena
  • ste tu s nami uz 5 rokov - Dakujeme
  • Vitaj Guest (Login) Ako stahovat
    torrenty?
    Torrenty:
    v1 textová
    v2 obrázková
    v3 online filmy
    Ako sa stat
    Uploaderom
    Online
    Filmy
    Forum
    Pravidlá
    BitTorrent
    klient
    Meno: Heslo:
    Zaregistrovat
    Po zaregistrovaní mozte volne stahovat
    Zabudol som heslo

    Torrent's details
    Proklety ostrov / Shutter Island (2010)(CZ) = CSFD 88% Názov:Proklety ostrov / Shutter Island (2010)(CZ) = CSFD 88% Hodnocení: Stiahnut
    Pozriet Online
    Kategória:Filmy CZ/SK dabing Velikost:684.1 MB BitTorrent klient
    Pridaný: Súbory:
    Skontrolován:2014-02-13 Peerov:0 (Seed: 0, Leech: 0)
    Zaner:Drama,Horor,Mysteriozni,Thriller Uploader:Uvidis, az ked budes
    VIP
    Kúp nám Pivo 1,10€

    Kúp nám Pivo
    Podporte nas na Facebooku !
    Pridaj do zalozky
    Pridaj do zalozky




    Jazyk:CZ
    Žáner: Drama / Thriller / Mysteriózní / Horor
    Krajina pôvodu:USA
    Titulky: Ne
    Rok vydání: 2010
    Délka:137 min
    Odkaz na CSFD: http://www.csfd.cz/film/235492-proklety-ostrov/



    Popis

    Detektiva Teddyho Danielse (Di Caprio) a jeho kolegu Chucka Auleho (Mark Ruffalo) privedlo na prokletý ostrov Shutter pátrání po šílené vražedkyni jménem Rachel Solando (Emily Mortimer), která zmizela ze své cely ve vezenské psychiatrické lécebne Ashecliffe a kdesi se úspešne skrývá. Píše se rok 1954 a Amerika se dosud nevzpamatovala z následku Druhé svetové války a navíc prežívá v permanentní paranoii domnelého i skutecného komunistického ohrožení. Daniels je ucebnicovou obetí téhle doby. Válecný veterán stále vzpomíná na prožité hruzy a navíc se musí vyrovnat se smrtí manželky. Až by se dalo sarkasticky ríct, že v rámci vyšetrování dorazil na správné místo. Jenže na tomhle ostrove neco smrdí a zkušený detektiv to instinktivne vycítí. Napríklad je presvedcený o tom, že lécebné metody, které zdejší lékari vedení doktorem Johnem Cawleym (Ben Kingsley) aplikují na pacienty, nejsou zcela v souladu s Hippokratovou prísahou. Druhou stranou mince je ale otázka detektivovy prícetnosti, jež je vlivem traumatických prožitku z minulosti a pomerne desivé a sklicující prítomnosti vystavována cím dál vetším otresum.




    Formát                           : AVI
    Formát/Info                      : Audio Video Interleave
    Velikost souboru                 : 684 MiB
    Duration                         : 2h 18mn
    Celkový BitRate                  : 693 Kbps
    Použitý software                 : Lavf52.43.0

    Video
    Formát                           : MPEG-4 Visual
    Format profile                   : Simple Streaming Video@L4
    Format settings, BVOP            : Ne
    Format settings, QPel            : Ne
    Format settings, GMC             : No warppoints
    Format settings, Matrix          : Default
    Codec ID                         : DX50
    Codec ID/Hint                    : DivX 5
    Duration                         : 2h 18mn
    Bit rate                         : 552 Kbps
    Šířka                            : 640pixely
    Výška                            : 360pixely
    Poměr stran                      : 16/9
    Frame rate                       : 25,000 fps
    Rozlišení                        : 24 bits
    Colorimetry                      : 4:2:0
    Scan type                        : Progressive
    Bits/(Pixel*Frame)               : 0.096
    Stream size                      : 546 MiB (80%)
    Enkódoval                        : XviD 1.1.2 (UTC 2006-11-01)

    Audio
    Formát                           : MPEG Audio
    Format version                   : Version 1
    Format profile                   : Layer 3
    Codec ID                         : 55
    Codec ID/Hint                    : MP3
    Duration                         : 2h 18mn
    Bit rate mode                    : Constant
    Bit rate                         : 128 Kbps
    Kanál(y)                         : 2 kanály
    Sampling rate                    : 44,1 KHz
    Rozlišení                        : 16 bits
    Stream size                      : 126 MiB (18%)
    Alignment                        : Aligned on interleaves
    Interleave, duration             : 26 ms (0,65 video frame)
    Enkódoval                        : LAME3.98.2





    Upozornenie:
    Ziadny zo zobrazených súborov sa nenachádza na tomto serveri. Server slúzi len k síreniu vlastnorucne vytvorených aplikácií, videí, hudby ai. Autori stránok nenesú ziadnu zodpovednost za zverejnené odkazy, komentáre a obsah súborov. Vsetky komentáre, odkazy, súbory ktoré by svojou povahou mohli byt v rozpore zo zákonmi sem vkladáte na vlastnú zodpovednost. Autori stránok si vyhradzujú právo cenzúry odkazov, komentárov príp. súborov, ktoré by svojou povahou mohli byt v rozpore zo zákonmi a dobrými mravmi. Dodrzujte pravidlá!




    Uploader
    02/09/2013 15.47.27
    Vyborny film. Zamotane az do konca. Obraz a zvuk OK


    Back

    Na serveru se nenalézají zádne soubory. Za odkazy jsou výhradně zodpovědní uzivatelé a návstěvníci tohoto trackeru. Administrátor není zodpovědný za pridaný obsah ani za skody zpusobené uzivateli. Rozsirovat stránku nebo její obsah bez souhlasu ownera je zakázano. Nesmíte pouzívat tuto webovou stránku pro distribuovaní nebo download zádného materiálu pokud nemáte povolení od príslusného vlastníka práv. Uzivatelé jsou zodpovědní za dodrzování těchto pravidel a podmínek. Owner má právo kdykoliv změnit pravidla tohoto trackeru.

    [ Script trval: 0.023 sec. ] - [ GZIP: enabled ]
    Je zhruba 13:04
    sql

    TOPlist