Tvoj účet nieje VIP.
Preto sú tvoje funkcie a možnosti značne obmedzené.
Pre aktiváciu VIP klikni sem.

Proroctvi / Knowing (2009)(CZ) = CSFD 67% | SkTorrent.eu

Cz-SkTorrent open Tracker, na volné zdielanie súborov. Pridajte sa k nasej komunite a získajte pristup k tisícom torrentov.

  • vysoká rýchlost
  • úplne zdarma
  • prevazne Slovenska a Ceska scena
  • ste tu s nami uz 5 rokov - Dakujeme
  • Vitaj Guest (Login) Ako stahovat
    torrenty?
    Torrenty:
    v1 textová
    v2 obrázková
    v3 online filmy
    Ako sa stat
    Uploaderom
    Online
    Filmy
    Forum
    Pravidlá
    BitTorrent
    klient
    Meno: Heslo:
    Zaregistrovat
    Po zaregistrovaní mozte volne stahovat
    Zabudol som heslo

    Torrent's details
    Proroctvi / Knowing (2009)(CZ) = CSFD 67% Názov:Proroctvi / Knowing (2009)(CZ) = CSFD 67% Hodnocení: Stiahnut
    Pozriet Online
    Kategória:Filmy CZ/SK dabing Velikost:700.6 MB BitTorrent klient
    Pridaný: Súbory:
    Skontrolován:2014-02-12 Peerov:0 (Seed: 0, Leech: 0)
    Zaner:Drama,Mysteriozni,Sci-Fi,Thriller Uploader:Uvidis, az ked budes
    VIP
    Kúp nám Pivo 1,10€

    Kúp nám Pivo
    Podporte nas na Facebooku !
    Pridaj do zalozky
    Pridaj do zalozky









    >>>>>   Proroctví / Knowing (2009)  <<<<<

    „Od režiséra filmu Já, robot...“





     
    http://www.csfd.cz/film/236435-proroctvi/
       
       


    CSFD 67%          IMDB 6.4/10          FDB 78.4%


    Jazyk: cz 5.1
    Titulky: ne
    Rok vydání:  USA / Velká Británie, 2009
    Délka: 121 min
    Žánr:  Akční / Thriller / Mysteriózní / Sci-Fi  


    >>>>>  Popis filmu  <<<<<
    V apokalyptickém snímku režiséra Alexe Proyase Proroctví se profesor astrofyziky John Koestler dostane k papíru se záhadnými čísly,jež napsala před padesáti lety ve škole malá Lucinda jako vzkaz pro budoucnost.Ovdovělý muž,který si po večerech rád přihne a který oddaně pečuje o syna Caleba,odhalí,že jde o záznamy minulých a budoucích katastrof,obsahující datum,souřadnice i počet obětí.Poslední nedokončená informace na den 19. říjen má být pro lidstvo a pro planetu Zemi osudná a ukáže se neodvratitelnou...

    Ve snímku Proroctví se mísí několik žánrů: po hororově laděné úvodní scéně se děj filmu odvíjí jako psychologické rodinné drama traumatizovaného otce,upnutého na synka,přes katastrofický thriller,nábožensky laděné sci-fi až k mysterióznímu závěru,kdy protagonista pochopí,že zkáza planety je definitivní,ale zánik lidstva nikoliv...    


    Režie:
    Alex Proyas

    Hrají:
     (Nicolas Cage - ), Rose Byrne, Chandler Canterbury, Adrienne Pickering, Ben Mendelsohn, Lara Robinson, Sally Anne Arnott, D.G. Maloney, Clem Maloney, Liam Hemsworth            


    >>>>>  Obal  <<<<<


    >>>>>  Potisk DVD  <<<<<


    >>>>>  Trailer  <<<<<



    >>>>>  Obrázky z filmu  <<<<<











                                         



                                         



    Formát: AVI
    Formát/Info: Audio Video Interleave
    Velikost souboru: 701 MiB
    Duration: 1h 56mn
    Celkový BitRate: 841 Kbps
    Použitý software: VirtualDubMod 1.5.4.1 (build 2178/release)
    Enkódoval: VirtualDubMod build 2178/release

    Video
    Formát: MPEG-4 Visual
    Format profile: Streaming Video@L1
    Format settings, BVOP: Ano
    Format settings, QPel: Ne
    Format settings, GMC: No warppoints
    Format settings, Matrix: Custom
    Codec ID: XVID
    Codec ID/Hint: XviD
    Duration: 1h 56mn
    Bit rate: 386 Kbps
    Šířka: 496pixely
    Výška: 288pixely
    Poměr stran: 16/9
    Frame rate: 25,000 fps
    Rozlišení: 24 bits
    Colorimetry: 4:2:0
    Scan type: Progressive
    Bits/(Pixel*Frame): 0.108
    Stream size: 322 MiB (46%)
    Enkódoval: XviD 50

    Audio
    Formát: AC-3
    Formát/Info: Audio Coding 3
    Codec ID: 2000
    Duration: 1h 56mn
    Bit rate mode: Constant
    Bit rate: 448 Kbps
    Kanál(y): 6 kanály
    Channel positions: Front: L C R, Surround: L R, LFE
    Sampling rate: 48,0 KHz
    Stream size: 373 MiB (53%)
    Alignment: Aligned on interleaves
    Interleave, duration: 96 ms (2,40 video frames)
    Interleave, preload duration: 96 ms
    Jazyk: Czech






















    lsakul, milanuska, pavel1920,

    + Pridaj vlastnu verziu tohto torrentu +


    Upozornenie:
    Ziadny zo zobrazených súborov sa nenachádza na tomto serveri. Server slúzi len k síreniu vlastnorucne vytvorených aplikácií, videí, hudby ai. Autori stránok nenesú ziadnu zodpovednost za zverejnené odkazy, komentáre a obsah súborov. Vsetky komentáre, odkazy, súbory ktoré by svojou povahou mohli byt v rozpore zo zákonmi sem vkladáte na vlastnú zodpovednost. Autori stránok si vyhradzujú právo cenzúry odkazov, komentárov príp. súborov, ktoré by svojou povahou mohli byt v rozpore zo zákonmi a dobrými mravmi. Dodrzujte pravidlá!


    No comments...


    Back

    Na serveru se nenalézají zádne soubory. Za odkazy jsou výhradně zodpovědní uzivatelé a návstěvníci tohoto trackeru. Administrátor není zodpovědný za pridaný obsah ani za skody zpusobené uzivateli. Rozsirovat stránku nebo její obsah bez souhlasu ownera je zakázano. Nesmíte pouzívat tuto webovou stránku pro distribuovaní nebo download zádného materiálu pokud nemáte povolení od príslusného vlastníka práv. Uzivatelé jsou zodpovědní za dodrzování těchto pravidel a podmínek. Owner má právo kdykoliv změnit pravidla tohoto trackeru.

    [ Script trval: 0.021 sec. ] - [ GZIP: enabled ]
    Je zhruba 12:22
    sql

    TOPlist