Tvoj účet nieje VIP.
Preto sú tvoje funkcie a možnosti značne obmedzené.
Pre aktiváciu VIP klikni sem.

Prvni Krev / First Kill (S01)(CZ/DE/EN/POL)(1080p)(2022) | SkTorrent.eu

Cz-SkTorrent open Tracker, na volné zdielanie súborov. Pridajte sa k nasej komunite a získajte pristup k tisícom torrentov.

  • vysoká rýchlost
  • úplne zdarma
  • prevazne Slovenska a Ceska scena
  • ste tu s nami uz 5 rokov - Dakujeme
  • Vitaj Guest (Login) Ako stahovat
    torrenty?
    Torrenty:
    v1 textová
    v2 obrázková
    v3 online filmy
    Ako sa stat
    Uploaderom
    Online
    Filmy
    Forum
    Pravidlá
    BitTorrent
    klient
    Meno: Heslo:
    Zaregistrovat
    Po zaregistrovaní mozte volne stahovat
    Zabudol som heslo

    Torrent's details
    Prvni Krev / First Kill (S01)(CZ/DE/EN/POL)(1080p)(2022) Názov:Prvni Krev / First Kill (S01)(CZ/DE/EN/POL)(1080p)(2022) Hodnocení:N/A Stiahnut
    Pozriet Online
    Kategória:Seriál Velikost:15.3 GB BitTorrent klient
    Pridaný: Súbory:
    Skontrolován:2022-06-10 Peerov:8 (Seed: 8, Leech: 0)
    Zaner:Drama,Horor,Mysteriozni Uploader:Uvidis, az ked budes
    VIP
    Kúp nám Pivo 1,10€

    Kúp nám Pivo
    Podporte nas na Facebooku !
    Pridaj do zalozky
    Pridaj do zalozky











    Drama / Horor / Mysteriózní
    USA, 2022, 6 h 34 min (Minutáž: 42–60 min)


    Video: 1080p MKV
    Audio : CZ/DE/EN/POL Dabing - AC-3 5.1- 640 kb/s  
    Titulky : CZ/DE/EN/POL + Forced

    Tvůrci: Felicia D. Henderson
    Režie: Jet Wilkinson
    Předloha: V. E. Schwab (kniha)
    Scénář: Felicia D. Henderson
    Kamera: Cliff Charles
    Hudba: Kurt Farquhar
    Hrají: Elizabeth Mitchell, Sarah Catherine Hook, Gracie Dzienny, Imani Lewis, Jason R. Moore, Phillip Mullings Jr., Aubin Wise, Jonas Dylan Allen, Will Swenson
    Produkce: James Bigwood, Matthew Matruski
    Střih: Angela Latimer
    Scénografie: Daniel A. Davila, Molly Coffee, Rika Nakaniši
    Masky: Natasha Arellano

    Náhled








    Juliette je upírka, Calliope lovkyně upírů. A obě vyhlíží svoji první oběť. Všechno se ale zvrtne, když se do sebe zamilují. (Netflix)



    Formát                                   : Matroska
    Format version                           : Version 4
    Velikost souboru                         : 1,88 GiB
    Duration                                 : 48 min 17 s
    Overall bit rate mode                    : Variable
    Celkový BitRate                          : 5 563 kb/s
    Název filmu                              : První pusa
    Description                              : Juliette, na kterou tlačí rodiče, aby vyhodila prášky a začala pít skutečnou krev, se zaměří na novou studentku Cal. Ta je doma taky pod tlakem, jenom z jiného důvodu.
    Použitý software                         : Lavf58.45.100
    Enkódoval                                : Lavf58.45.100
    ErrorDetectionType                       : Per level 1
    EPISODE_ID                               : 1
    SEASON_NUMBER                            : 1
    SHOW                                     : První krev

    Video
    ID                                       : 1
    Formát                                   : AVC
    Formát/Info                              : Advanced Video Codec
    Format profile                           : High@L4
    Format settings                          : CABAC / 4 Ref Frames
    Format settings, CABAC                   : Ano
    Format settings, Reference frames        : 4 frames
    Codec ID                                 : V_MPEG4/ISO/AVC
    Duration                                 : 48 min 17 s
    Bit rate mode                            : Variable
    Bit rate                                 : 2 764 kb/s
    Maximum bit rate                         : 20,0 Mb/s
    Šířka                                    : 1 920pixely
    Výška                                    : 1 080pixely
    Poměr stran                              : 16:9
    Frame rate mode                          : Constant
    Frame rate                               : 23,976 (24000/1001) FPS
    Color space                              : YUV
    Chroma subsampling                       : 4:2:0
    Bit depth                                : 8 bits
    Scan type                                : Progressive
    Bits/(Pixel*Frame)                       : 0.056
    Stream size                              : 955 MiB (50%)
    Titul                                    : ?@GPAC2.1-DEV-rev6242-g07e35adfb-HEAD
    Enkódoval                                : x264 core 148 r2727 7d026e8
    Nastavení enkoderu                       : cabac=1 / ref=4 / deblock=1:0:0 / analyse=0x3:0x111 / me=umh / subme=10 / psy=1 / psy_rd=1.00:0.00 / mixed_ref=1 / me_range=120 / chroma_me=1 / trellis=2 / 8x8dct=1 / cqm=0 / deadzone=21,11 / fast_pskip=1 / chroma_qp_offset=-2 / threads=8 / lookahead_threads=2 / sliced_threads=0 / nr=0 / decimate=1 / interlaced=0 / bluray_compat=0 / stitchable=1 / constrained_intra=0 / bframes=16 / b_pyramid=2 / b_adapt=2 / b_bias=0 / direct=3 / weightb=1 / open_gop=0 / weightp=2 / keyint=240 / keyint_min=121 / scenecut=0 / intra_refresh=0 / rc_lookahead=240 / rc=crf / mbtree=1 / crf=22.0 / qcomp=0.50 / qpmin=6 / qpmax=51 / qpstep=4 / vbv_maxrate=20000 / vbv_bufsize=25000 / crf_max=0.0 / nal_hrd=vbr / filler=0 / ip_ratio=1.40 / aq=1:0.80
    Default                                  : Ano
    Forced                                   : Ne

    Audio #1
    ID                                       : 2
    Formát                                   : E-AC-3
    Formát/Info                              : Enhanced AC-3
    Commercial name                          : Dolby Digital Plus
    Codec ID                                 : A_EAC3
    Duration                                 : 48 min 17 s
    Bit rate mode                            : Constant
    Bit rate                                 : 640 kb/s
    Kanál(y)                                 : 6 kanály
    Channel layout                           : L R C LFE Ls Rs
    Sampling rate                            : 48,0 kHz
    Frame rate                               : 31,250 FPS (1536 SPF)
    Bit depth                                : 32 bits
    Compression mode                         : Lossy
    Stream size                              : 221 MiB (12%)
    Titul                                    : čeština
    Jazyk                                    : Czech
    Service kind                             : Complete Main
    Default                                  : Ano
    Forced                                   : Ne

    Audio #2
    ID                                       : 3
    Formát                                   : E-AC-3
    Formát/Info                              : Enhanced AC-3
    Commercial name                          : Dolby Digital Plus
    Codec ID                                 : A_EAC3
    Duration                                 : 48 min 17 s
    Bit rate mode                            : Constant
    Bit rate                                 : 640 kb/s
    Kanál(y)                                 : 6 kanály
    Channel layout                           : L R C LFE Ls Rs
    Sampling rate                            : 48,0 kHz
    Frame rate                               : 31,250 FPS (1536 SPF)
    Bit depth                                : 32 bits
    Compression mode                         : Lossy
    Stream size                              : 221 MiB (12%)
    Titul                                    : němčina
    Jazyk                                    : German
    Service kind                             : Complete Main
    Default                                  : Ne
    Forced                                   : Ne

    Audio #3
    ID                                       : 4
    Formát                                   : E-AC-3 JOC
    Formát/Info                              : Enhanced AC-3 with Joint Object Coding
    Commercial name                          : Dolby Digital Plus with Dolby Atmos
    Codec ID                                 : A_EAC3
    Duration                                 : 48 min 17 s
    Bit rate mode                            : Constant
    Bit rate                                 : 768 kb/s
    Kanál(y)                                 : 6 kanály
    Channel layout                           : L R C LFE Ls Rs
    Sampling rate                            : 48,0 kHz
    Frame rate                               : 31,250 FPS (1536 SPF)
    Bit depth                                : 32 bits
    Compression mode                         : Lossy
    Stream size                              : 265 MiB (14%)
    Titul                                    : angličtina [Originál]
    Jazyk                                    : English
    Service kind                             : Complete Main
    Default                                  : Ne
    Forced                                   : Ne
    Complexity index                         : 16
    Number of dynamic objects                : 15
    Bed channel count                        : 1 kanál
    Bed channel configuration                : LFE

    Audio #4
    ID                                       : 5
    Formát                                   : E-AC-3
    Formát/Info                              : Enhanced AC-3
    Commercial name                          : Dolby Digital Plus
    Codec ID                                 : A_EAC3
    Duration                                 : 48 min 17 s
    Bit rate mode                            : Constant
    Bit rate                                 : 640 kb/s
    Kanál(y)                                 : 6 kanály
    Channel layout                           : L R C LFE Ls Rs
    Sampling rate                            : 48,0 kHz
    Frame rate                               : 31,250 FPS (1536 SPF)
    Bit depth                                : 32 bits
    Compression mode                         : Lossy
    Stream size                              : 221 MiB (12%)
    Titul                                    : polština
    Jazyk                                    : Polish
    Service kind                             : Complete Main
    Default                                  : Ne
    Forced                                   : Ne

    Text #1
    ID                                       : 6
    Formát                                   : UTF-8
    Codec ID                                 : S_TEXT/UTF8
    Codec ID/Info                            : UTF-8 Plain Text
    Duration                                 : 46 min 54 s
    Titul                                    : čeština
    Enkódoval                                : Lavc58.91.100 srt
    Jazyk                                    : Czech
    Default                                  : Ano
    Forced                                   : Ne

    Text #2
    ID                                       : 7
    Formát                                   : UTF-8
    Codec ID                                 : S_TEXT/UTF8
    Codec ID/Info                            : UTF-8 Plain Text
    Duration                                 : 46 min 54 s
    Titul                                    : Czech [ForcedNarrative]
    Enkódoval                                : Lavc58.91.100 srt
    Jazyk                                    : Czech
    Default                                  : Ne
    Forced                                   : Ne

    Text #3
    ID                                       : 8
    Formát                                   : UTF-8
    Codec ID                                 : S_TEXT/UTF8
    Codec ID/Info                            : UTF-8 Plain Text
    Duration                                 : 46 min 54 s
    Titul                                    : němčina
    Enkódoval                                : Lavc58.91.100 srt
    Jazyk                                    : German
    Default                                  : Ne
    Forced                                   : Ne

    Text #4
    ID                                       : 9
    Formát                                   : UTF-8
    Codec ID                                 : S_TEXT/UTF8
    Codec ID/Info                            : UTF-8 Plain Text
    Duration                                 : 46 min 54 s
    Titul                                    : German [ForcedNarrative]
    Enkódoval                                : Lavc58.91.100 srt
    Jazyk                                    : German
    Default                                  : Ne
    Forced                                   : Ne

    Text #5
    ID                                       : 10
    Formát                                   : UTF-8
    Codec ID                                 : S_TEXT/UTF8
    Codec ID/Info                            : UTF-8 Plain Text
    Duration                                 : 45 min 47 s
    Titul                                    : angličtina [CC]
    Enkódoval                                : Lavc58.91.100 srt
    Jazyk                                    : English
    Default                                  : Ne
    Forced                                   : Ne

    Text #6
    ID                                       : 11
    Formát                                   : UTF-8
    Codec ID                                 : S_TEXT/UTF8
    Codec ID/Info                            : UTF-8 Plain Text
    Duration                                 : 46 min 54 s
    Titul                                    : Polish [ForcedNarrative]
    Enkódoval                                : Lavc58.91.100 srt
    Jazyk                                    : Polish
    Default                                  : Ne
    Forced                                   : Ne

    Text #7
    ID                                       : 12
    Formát                                   : UTF-8
    Codec ID                                 : S_TEXT/UTF8
    Codec ID/Info                            : UTF-8 Plain Text
    Duration                                 : 46 min 54 s
    Titul                                    : polština
    Enkódoval                                : Lavc58.91.100 srt
    Jazyk                                    : Polish
    Default                                  : Ne
    Forced                                   : Ne















    + Pridaj vlastnu verziu tohto torrentu +


    Upozornenie:
    Ziadny zo zobrazených súborov sa nenachádza na tomto serveri. Server slúzi len k síreniu vlastnorucne vytvorených aplikácií, videí, hudby ai. Autori stránok nenesú ziadnu zodpovednost za zverejnené odkazy, komentáre a obsah súborov. Vsetky komentáre, odkazy, súbory ktoré by svojou povahou mohli byt v rozpore zo zákonmi sem vkladáte na vlastnú zodpovednost. Autori stránok si vyhradzujú právo cenzúry odkazov, komentárov príp. súborov, ktoré by svojou povahou mohli byt v rozpore zo zákonmi a dobrými mravmi. Dodrzujte pravidlá!


    No comments...


    Back

    Na serveru se nenalézají zádne soubory. Za odkazy jsou výhradně zodpovědní uzivatelé a návstěvníci tohoto trackeru. Administrátor není zodpovědný za pridaný obsah ani za skody zpusobené uzivateli. Rozsirovat stránku nebo její obsah bez souhlasu ownera je zakázano. Nesmíte pouzívat tuto webovou stránku pro distribuovaní nebo download zádného materiálu pokud nemáte povolení od príslusného vlastníka práv. Uzivatelé jsou zodpovědní za dodrzování těchto pravidel a podmínek. Owner má právo kdykoliv změnit pravidla tohoto trackeru.

    [ Script trval: 0.029 sec. ] - [ GZIP: enabled ]
    Je zhruba 08:14
    sql

    TOPlist