Tvoj účet nieje VIP.
Preto sú tvoje funkcie a možnosti značne obmedzené.
Pre aktiváciu VIP klikni sem.

Prvotni strach / Primal fear (1996)(CZ) = CSFD 82% | SkTorrent.eu

Cz-SkTorrent open Tracker, na volné zdielanie súborov. Pridajte sa k nasej komunite a získajte pristup k tisícom torrentov.

  • vysoká rýchlost
  • úplne zdarma
  • prevazne Slovenska a Ceska scena
  • ste tu s nami uz 5 rokov - Dakujeme
  • Vitaj Guest (Login) Ako stahovat
    torrenty?
    Torrenty:
    v1 textová
    v2 obrázková
    v3 online filmy
    Ako sa stat
    Uploaderom
    Online
    Filmy
    Forum
    Pravidlá
    BitTorrent
    klient
    Meno: Heslo:
    Zaregistrovat
    Po zaregistrovaní mozte volne stahovat
    Zabudol som heslo

    Torrent's details
    Prvotni strach / Primal fear (1996)(CZ) = CSFD 82% Názov:Prvotni strach / Primal fear (1996)(CZ) = CSFD 82% Hodnocení:N/A Stiahnut
    Pozriet Online
    Kategória:Filmy CZ/SK dabing Velikost:1.4 GB BitTorrent klient
    Pridaný: Súbory:
    Skontrolován:2014-02-20 Peerov:0 (Seed: 0, Leech: 0)
    Zaner:Drama,Krimi,Thriller Uploader:Uvidis, az ked budes
    VIP
    Kúp nám Pivo 1,10€

    Kúp nám Pivo
    Podporte nas na Facebooku !
    Pridaj do zalozky
    Pridaj do zalozky






    Prvotní strach

    Jazyk: Cz
    Titulky: Ne
    Kvalita zvuku: Media Info
    Kvalita videa: Media Info
    Odkaz na CSFD: http://www.csfd.cz/film/15095-prvotni-strach/
    Rok vydání: 1996
    Délka: 125 minut
    Žánr: Drama/Thriller/Krimi
    Hrají: Richard Gere,Laura Linney, Edward Norton,John Mahoney,Frances McDormand,
    Režie: Gregory Hoblit





    Martin Vail (Richard Gere) patří v Chicagu k prominentním obhájcům. Je to pohledný, na první pohled úspěšný, ale i arogantní a ješitný muž, který velice pečlivě hlídá úroveň vlastní popularity. Když se dozví o brutální vraždě arcibiskupa, nabídne bez zaváháni své služby podezřelému mladému muži, aniž by se zabýval otázkou jeho viny či neviny. Případ bude sledován sdělovacími prostředky a navíc nabízí vyrovnat si hned dva soukromé účty - s bývalou milenkou a jejím šéfem. I tentokrát odchází Martin Vail ze soudní síně vítězně. Jeho mandant mu však udělí zcela nečekanou lekci

                       


     
                 


     

                 


    Format                           : AVI
    Format/Info: Audio Video Interleave
    File size: 1.37 GiB
    Duration: 2h 5mn
    Overall bit rate: 1 566 Kbps
    Writing application: VirtualDubMod 1.5.4.1 (build 2178/release)
    Writing library: VirtualDubMod build 2178/release

    Video
    Format: MPEG-4 Visual
    Format profile: Streaming Video@L1
    Format settings, BVOP: Yes
    Format settings, QPel: No
    Format settings, GMC: No warppoints
    Format settings, Matrix: Custom
    Codec ID: XVID
    Codec ID/Hint: XviD
    Duration: 2h 5mn
    Bit rate: 1 335 Kbps
    Width: 720 pixels
    Height: 416 pixels
    Display aspect ratio: 16/9
    Frame rate: 25.000 fps
    Resolution: 24 bits
    Colorimetry: 4:2:0
    Scan type: Progressive
    Bits/(Pixel*Frame): 0.178
    Stream size: 1.17 GiB (85%)
    Writing library: XviD 1.2.1 (UTC 2008-12-04)

    Audio
    Format: AC-3
    Format/Info: Audio Coding 3
    Format profile: Dolby Digital
    Codec ID: 2000
    Duration: 2h 5mn
    Bit rate mode: Constant
    Bit rate: 224 Kbps
    Channel(s): 2 channels
    Channel positions: L R
    Sampling rate: 48.0 KHz
    Stream size: 200 MiB (14%)
    Alignment: Split accross interleaves
    Interleave, duration: 96 ms (2.40 video frames)
    Interleave, preload duration: 96 ms
    Language                         : Czech

                                   







    Upozornenie:
    Ziadny zo zobrazených súborov sa nenachádza na tomto serveri. Server slúzi len k síreniu vlastnorucne vytvorených aplikácií, videí, hudby ai. Autori stránok nenesú ziadnu zodpovednost za zverejnené odkazy, komentáre a obsah súborov. Vsetky komentáre, odkazy, súbory ktoré by svojou povahou mohli byt v rozpore zo zákonmi sem vkladáte na vlastnú zodpovednost. Autori stránok si vyhradzujú právo cenzúry odkazov, komentárov príp. súborov, ktoré by svojou povahou mohli byt v rozpore zo zákonmi a dobrými mravmi. Dodrzujte pravidlá!


    No comments...


    Back

    Na serveru se nenalézají zádne soubory. Za odkazy jsou výhradně zodpovědní uzivatelé a návstěvníci tohoto trackeru. Administrátor není zodpovědný za pridaný obsah ani za skody zpusobené uzivateli. Rozsirovat stránku nebo její obsah bez souhlasu ownera je zakázano. Nesmíte pouzívat tuto webovou stránku pro distribuovaní nebo download zádného materiálu pokud nemáte povolení od príslusného vlastníka práv. Uzivatelé jsou zodpovědní za dodrzování těchto pravidel a podmínek. Owner má právo kdykoliv změnit pravidla tohoto trackeru.

    [ Script trval: 0.051 sec. ] - [ GZIP: enabled ]
    BtiTracker (1.4.8) by Btiteam
    Je zhruba 05:51

    TOPlist